img image001 image001 image001 image001 image001 image001 image001 image001 image001 image001 image001 image001 image001 image001 image001

Planets Sun Sun Sun
Статистика раздачи
Автор: PriZraK | Размер: 4.37 ГБ | Добавлен: 15 фев 2014
Раздают: 38    Качают: 11
Скачать торрент
Скачать торрент
Описание торрента

СообщениеДобавлено: 15 фев 2014 




Информация о фильме
Название: Турбо
Оригинальное название: Turbo
Год выхода: 2013
Жанр: мультфильм, комедия, приключения, семейный, спорт
Режиссер: Дэвид Сорен / David Soren
Роли озвучивали: Райан Рейнольдс, Пол Джаматти, Майкл Пенья, Снуп Догг, Майя Рудольф, Мишель Родригес, Сэмюэл Л. Джексон, Луис Гусман, Билл Хейдер, Бен Шварц

О фильме:
Ничто так не раздражает темпераментную, мечтающую о скорости улитку с говорящим именем Турбо, как неспешная жизнь, медленные разговоры, заторможенные соседи. Пусть наш герой выглядит большим чудаком в этом вялом, неторопливом мире, пусть он идёт вопреки закону природы о «рождённом ползать», но если в сердце горит «пламенный мотор», а душа верит в чудо, оно просто не имеет права не произойти!



Выпущено: США
Продолжительность: 01:35:40
Перевод: Дублированный + Оригинал

Файл
Кодек: x264
Качество: BDRip 1080p
Видео: 1920x816, 5648 Kbps, 23.976 fps
Аудио #1: AC-3, 6 ch, 448 kbps (Rus)
Аудио #2: AC-3, 6 ch, 448 kbps (Eng)
Субтитры: русские (полные, форсированные), английские - спасибо subsvin2

Общее
Уникальный идентификатор : 250418811429173974266234844408405032989 (0xBC64E8A44B514176A73866F30C20001D)
Полное имя : Турбо.2013.BDRip.1080p.Rus.Eng.mkv
Формат : Matroska
Версия формата : Version 2
Размер файла : 4,37 Гбайт
Продолжительность : 1 ч. 35 м.
Общий поток : 6541 Кбит/сек
Название фильма : Турбо.2013
Дата кодирования : UTC 2013-10-30 13:21:37
Программа кодирования : mkvmerge v5.8.0 ('No Sleep / Pillow') built on Sep 2 2012 15:37:04
Библиотека кодирования : libebml v1.2.3 + libmatroska v1.3.0

Видео
Идентификатор : 1
Формат : AVC
Формат/Информация : Advanced Video Codec
Профиль формата : High@L4.1
Параметр CABAC формата : Да
Параметр ReFrames формата : 5 кадров
Идентификатор кодека : V_MPEG4/ISO/AVC
Продолжительность : 1 ч. 35 м.
Битрейт : 5648 Кбит/сек
Ширина : 1920 пикселей
Высота : 816 пикселей
Соотношение сторон : 2,35:1
Режим частоты кадров : Постоянный
Частота кадров : 23,976 кадра/сек
Цветовое пространство : YUV
Субдискретизация насыщенности : 4:2:0
Битовая глубина : 8 бит
Тип развёртки : Прогрессивная
Бит/(Пиксели*Кадры) : 0.150
Размер потока : 3,69 Гбайт (84%)
Заголовок : Rip by Boriy
Библиотека кодирования : x264 core 138 r2358 9e941d1
Настройки программы : cabac=1 / ref=5 / deblock=1:-3:-3 / analyse=0x3:0x113 / me=umh / subme=11 / psy=1 / psy_rd=1.00:0.00 / mixed_ref=1 / me_range=32 / chroma_me=1 / trellis=2 / 8x8dct=1 / cqm=0 / deadzone=21,11 / fast_pskip=0 / chroma_qp_offset=-2 / threads=12 / lookahead_threads=1 / sliced_threads=0 / nr=0 / decimate=0 / interlaced=0 / bluray_compat=0 / constrained_intra=0 / bframes=6 / b_pyramid=2 / b_adapt=2 / b_bias=0 / direct=3 / weightb=1 / open_gop=0 / weightp=2 / keyint=240 / keyint_min=23 / scenecut=40 / intra_refresh=0 / rc=2pass / mbtree=0 / bitrate=5648 / ratetol=1.0 / qcomp=0.60 / qpmin=0 / qpmax=69 / qpstep=4 / cplxblur=20.0 / qblur=0.5 / ip_ratio=1.40 / pb_ratio=1.30 / aq=1:0.90
Язык : English
Default : Да
Forced : Нет

Аудио #1
Идентификатор : 2
Формат : AC-3
Формат/Информация : Audio Coding 3
Расширение режима : CM (complete main)
Параметр Endianness формата : Big
Идентификатор кодека : A_AC3
Продолжительность : 1 ч. 35 м.
Вид битрейта : Постоянный
Битрейт : 448 Кбит/сек
Каналы : 6 каналов
Расположение каналов : Front: L C R, Side: L R, LFE
Частота : 48,0 КГц
Битовая глубина : 16 бит
Метод сжатия : С потерями
Размер потока : 307 Мбайт (7%)
Заголовок : Дубляж
Язык : Russian
Default : Да
Forced : Нет

Аудио #2
Идентификатор : 3
Формат : AC-3
Формат/Информация : Audio Coding 3
Расширение режима : CM (complete main)
Параметр Endianness формата : Big
Идентификатор кодека : A_AC3
Продолжительность : 1 ч. 35 м.
Вид битрейта : Постоянный
Битрейт : 448 Кбит/сек
Каналы : 6 каналов
Расположение каналов : Front: L C R, Side: L R, LFE
Частота : 48,0 КГц
Битовая глубина : 16 бит
Метод сжатия : С потерями
Размер потока : 307 Мбайт (7%)
Заголовок : Оригинал
Язык : English
Default : Нет
Forced : Нет

Текст #1
Идентификатор : 4
Формат : UTF-8
Идентификатор кодека : S_TEXT/UTF8
Идентификатор кодека/Информация : UTF-8 Plain Text
Заголовок : Forced
Язык : Russian
Default : Да
Forced : Да

Текст #2
Идентификатор : 5
Формат : UTF-8
Идентификатор кодека : S_TEXT/UTF8
Идентификатор кодека/Информация : UTF-8 Plain Text
Заголовок : Full
Язык : Russian
Default : Нет
Forced : Нет

Текст #3
Идентификатор : 6
Формат : UTF-8
Идентификатор кодека : S_TEXT/UTF8
Идентификатор кодека/Информация : UTF-8 Plain Text
Заголовок : Full
Язык : English
Default : Нет
Forced : Нет

Меню
00:00:00.000 : :Chapter 1
00:03:29.626 : :Chapter 2
00:06:39.857 : :Chapter 3
00:08:34.222 : :Chapter 4
00:10:13.863 : :Chapter 5
00:13:25.095 : :Chapter 6
00:17:15.784 : :Chapter 7
00:21:53.353 : :Chapter 8
00:25:42.707 : :Chapter 9
00:28:24.494 : :Chapter 10
00:30:17.899 : :Chapter 11
00:34:20.892 : :Chapter 12
00:38:20.339 : :Chapter 13
00:40:45.109 : :Chapter 14
00:44:40.219 : :Chapter 15
00:47:40.941 : :Chapter 16
00:49:29.925 : :Chapter 17
00:53:28.955 : :Chapter 18
00:57:00.750 : :Chapter 19
00:59:38.825 : :Chapter 20
01:02:05.972 : :Chapter 21
01:05:50.780 : :Chapter 22
01:08:07.166 : :Chapter 23
01:13:08.801 : :Chapter 24
01:16:26.790 : :Chapter 25
01:19:48.450 : :Chapter 26
01:23:26.126 : :Chapter 27
01:26:29.726 : :Chapter 28
01:35:40.484 : :Chapter 29
x264 [info]: frame I:1306 Avg QP:14.68 size:173219
x264 [info]: frame P:41895 Avg QP:17.67 size: 51953
x264 [info]: frame B:94439 Avg QP:19.34 size: 17435



   Похожие торренты   Торрент   Размер 
В этой теме нет новых непрочитанных сообщений. Турбо / Turbo (2013) BDRip 1080p

3 | 3

7.76 ГБ

В этой теме нет новых непрочитанных сообщений. Турбо / Turbo (2013) BDRip 1080p | 3D-Video | halfOU

75 | 16

5.86 ГБ

В этой теме нет новых непрочитанных сообщений. Турбо / Turbo (2013) BDRip 1080p от HELLYWOOD | D | Лицензия

10 | 4

5.01 ГБ

В этой теме нет новых непрочитанных сообщений. Турбо / Turbo (2013) BDRip 1080p | 3D-Video | HOU | Лицензия

5 | 2

8.73 ГБ

В этой теме нет новых непрочитанных сообщений. Турбо / Turbo (2013) BDRip-HEVC 1080p от FREEISLAND

224 | 9

1.66 ГБ

В этой теме нет новых непрочитанных сообщений. Турбо / Turbo (2013) BDRip 1080p от HDClub | Лицензия

130 | 11

7.64 ГБ

В этой теме нет новых непрочитанных сообщений. Турбо / Turbo (2013) BDRip 1080p | 3D-Video | HSBS | Лицензия

95 | 4

8.71 ГБ




Вы не можете начинать темы
Вы не можете отвечать на сообщения
Вы не можете редактировать свои сообщения
Вы не можете удалять свои сообщения
Вы не можете добавлять вложения

Перейти:  
Для Мосгорсуда, Роскомнадзора и рекламодателей: mosgorsud-torrent[собачка]yandex.ru
 Вход
ppkBB3cker v.2 © 2008-2014 @ PPK
[ Time : 0.021s | 14 Queries | GZIP : Off ]

Торрент трекер RUTOR.IN, Не можете зайти на rutor.org? Какой новый адрес рутор? Какое зеркало рутор? Не работает rutor.org и зеркала? Тогда наш торрент специально для вас. Rutor.in неофициальное зеркало rutor. В случае если у Вас заблокирован rutor или вдруг Вы не можете на него зайти, то Вы без труда сможете скачать бесплатно и без рекламы последние новинки кино, игр, сериалов и прочего у нас, на Rutor.in. Не нужно использовать прокси, чтобы зайти на рутор, достаточно воспользоваться нашим ресурсом. Все новые фильмы, игры, сериалы, книги и музыка за 2013 и 2014 годы через торрент бесплатно. Скачивайте фильмы в хорошем качестве, игры для пк, xbox, playstation без регистрации. У нас вы найдете новые Зарубежные сериалы и Русские сериалы 2013, 2014, 2015 годов. Оставайтесь с нами, качайте любимые фильмы, игры, сериалы, книги и музыку.