img image001 image001 image001 image001 image001 image001 image001 image001 image001 image001 image001 image001 image001 image001 image001

Planets Sun Sun Sun
Статистика раздачи
Автор: PriZraK | Размер: 11.85 ГБ | Добавлен: 15 фев 2014
Раздают: 174    Качают: 15
Скачать торрент
Скачать торрент
Описание торрента

СообщениеДобавлено: 15 фев 2014 




Информация о фильме
Название: Университет монстров
Оригинальное название: Monsters University
Год выпуска: 2013
Жанр: Мультфильм, фэнтези, комедия, приключения, семейный, полнометражный
Выпущено: США, Pixar Animation Studios, Walt Disney Pictures
Режиссер: Дэн Скэнлон
В ролях: Джон Гудмен, Билли Кристал, Стив Бушеми, Хелен Миррен, Питер Сон, Джоэль Мюррей, Шон Хейс, Дэйв Фоли, Чарли Дэй, Альфред Молина, Натан Филлион, Обри Плаза, Бобби Мойнихэн мл.

О фильме: Майк и Салли — самые опытные пугатели в Монстрополисе, но так было далеко не всегда. Когда они встретились впервые, эти совершенно непохожие друг на друга монстры терпеть друг друга не могли. «Университет Монстров» — история о том, как наши старые знакомые прошли путь от взаимной неприязни к крепкой дружбе.



Файл
Качество: BDRip (1080p)
Видео: MPEG-4 AVC, 14 Мбит/с, 1920x1080
Аудио: Русский (AC3, 6 ch, 640 Кбит/с), английский (DTS, 6 ch, 1510 Кбит/с), (AC3, 2 ch, 192 Кбит/с)
Размер: 11.85 ГБ
Продолжительность: 01:43:47
Перевод: Дублированный [лицензия]
Субтитры: Английские, французские, испанские
Общее
Уникальный идентификатор : 205311720132895016331315754358045184538 (0x9A7599565823E257A15A8D8942DC921A)
Полное имя : D:New folderMonsters.University.2013.1080p.BluRay.DTS.x264-SbR.mkv
Формат : Matroska
Версия формата : Version 2
Размер файла : 11,9 Гбайт
Продолжительность : 1 ч. 43 м.
Общий поток : 16,3 Мбит/сек
Название фильма : Monsters University (2013) - Release for HDBITS by SbR
Дата кодирования : UTC 2013-10-31 21:15:28
Программа кодирования : mkvmerge v6.3.0 ('You can't stop me!') built on Jun 28 2013 20:09:41
Библиотека кодирования : libebml v1.3.0 + libmatroska v1.4.0
Attachment : Yes / Yes
Видео
Идентификатор : 1
Формат : AVC
Формат/Информация : Advanced Video Codec
Профиль формата : High@L4.1
Параметр CABAC формата : Да
Параметр ReFrames формата : 4 кадра
Идентификатор кодека : V_MPEG4/ISO/AVC
Продолжительность : 1 ч. 43 м.
Битрейт : 14,0 Мбит/сек
Ширина : 1920 пикселей
Высота : 1080 пикселей
Соотношение сторон : 16:9
Режим частоты кадров : Постоянный
Частота кадров : 23,976 кадра/сек
Цветовое пространство : YUV
Субдискретизация насыщенности : 4:2:0
Битовая глубина : 8 бит
Тип развёртки : Прогрессивная
Бит/(Пиксели*Кадры) : 0.282
Размер потока : 9,92 Гбайт (84%)
Заголовок : Release for HDBITS
Библиотека кодирования : x264 core 138 r2359+704+48 3f879a0 tMod [8-bit@4:2:0 X86_64]
Настройки программы : cabac=1 / ref=4 / deblock=1:-1:-1 / analyse=0x3:0x113 / me=tesa / subme=11 / psy=1 / fade_compensate=0.00 / psy_rd=0.50:0.05 / mixed_ref=1 / me_range=24 / chroma_me=1 / trellis=2 / 8x8dct=1 / cqm=0 / deadzone=21,11 / fast_pskip=0 / chroma_qp_offset=-3 / threads=12 / lookahead_threads=2 / sliced_threads=0 / nr=0 / decimate=1 / interlaced=0 / bluray_compat=0 / constrained_intra=0 / fgo=0 / bframes=7 / b_pyramid=2 / b_adapt=2 / b_bias=0 / direct=3 / weightb=1 / open_gop=0 / weightp=2 / keyint=250 / keyint_min=23 / scenecut=40 / intra_refresh=0 / rc_lookahead=60 / rc=2pass / mbtree=0 / bitrate=14000 / ratetol=1.0 / qcomp=0.70 / qpmin=0:0:0 / qpmax=69:69:69 / qpstep=4 / cplxblur=20.0 / qblur=0.5 / vbv_maxrate=62500 / vbv_bufsize=78125 / nal_hrd=none / ip_ratio=1.40 / pb_ratio=1.30 / aq=1:0.60 / aq-sensitivity=10.00 / aq-factor=1.00:1.00:1.00 / aq2=0 / aq3=0 / zones=5942,5981,b=2/6053,6085,b=2/7116,8072,b=2/19701,23255,b=2/34947,42280,b=2/52433,53411,b=2/53685,55130,b=2/60416,62955,b=2/82725,84431,b=2/84884,84953,b=2/85146,85216,b=2/85274,85380,b=2/85459,85522,b=2/85615,85642,b=2/85783,86160,b=2/86935,88764,b=2/96911,97174,b=2/99989,100191,b=2/100673,100737,b=2/100766,100814,b=2
Язык : English
Default : Да
Forced : Нет
Основные цвета : BT.709
Характеристики трансфера : BT.709
Коэффициенты матрицы : BT.709
Аудио #1
Идентификатор : 2
Формат : AC-3
Формат/Информация : Audio Coding 3
Расширение режима : CM (complete main)
Параметр Endianness формата : Big
Идентификатор кодека : A_AC3
Продолжительность : 1 ч. 43 м.
Вид битрейта : Постоянный
Битрейт : 640 Кбит/сек
Каналы : 6 каналов
Расположение каналов : Front: L C R, Side: L R, LFE
Частота : 48,0 КГц
Битовая глубина : 16 бит
Метод сжатия : С потерями
Размер потока : 475 Мбайт (4%)
Язык : Russian
Default : Да
Forced : Нет
Аудио #2
Идентификатор : 3
Формат : DTS
Формат/Информация : Digital Theater Systems
Режим : 16
Параметр Endianness формата : Big
Идентификатор кодека : A_DTS
Продолжительность : 1 ч. 43 м.
Вид битрейта : Постоянный
Битрейт : 1509 Кбит/сек
Каналы : 6 каналов
Расположение каналов : Front: L C R, Side: L R, LFE
Частота : 48,0 КГц
Битовая глубина : 24 бит
Метод сжатия : С потерями
Размер потока : 1,09 Гбайт (9%)
Язык : English
Default : Нет
Forced : Нет
Аудио #3
Идентификатор : 4
Формат : AC-3
Формат/Информация : Audio Coding 3
Расширение режима : CM (complete main)
Параметр Endianness формата : Big
Идентификатор кодека : A_AC3
Продолжительность : 1 ч. 43 м.
Вид битрейта : Постоянный
Битрейт : 192 Кбит/сек
Каналы : 2 канала
Расположение каналов : Front: L R
Частота : 48,0 КГц
Битовая глубина : 16 бит
Метод сжатия : С потерями
Размер потока : 143 Мбайт (1%)
Заголовок : Commentary by Dan Scanlon, Kori Rae, and Kelsey Mann
Язык : English
Default : Нет
Forced : Нет
Текст #1
Идентификатор : 5
Формат : UTF-8
Идентификатор кодека : S_TEXT/UTF8
Идентификатор кодека/Информация : UTF-8 Plain Text
Язык : English
Default : Нет
Forced : Нет
Текст #2
Идентификатор : 6
Формат : UTF-8
Идентификатор кодека : S_TEXT/UTF8
Идентификатор кодека/Информация : UTF-8 Plain Text
Заголовок : SDH
Язык : English
Default : Нет
Forced : Нет
Текст #3
Идентификатор : 7
Формат : UTF-8
Идентификатор кодека : S_TEXT/UTF8
Идентификатор кодека/Информация : UTF-8 Plain Text
Язык : French
Default : Нет
Forced : Нет
Текст #4
Идентификатор : 8
Формат : UTF-8
Идентификатор кодека : S_TEXT/UTF8
Идентификатор кодека/Информация : UTF-8 Plain Text
Язык : Spanish
Default : Нет
Forced : Нет
Текст #5
Идентификатор : 9
Формат : UTF-8
Идентификатор кодека : S_TEXT/UTF8
Идентификатор кодека/Информация : UTF-8 Plain Text
Заголовок : Commentary by Dan Scanlon, Kori Rae, Kelsey Mann
Язык : English
Default : Нет
Forced : Нет
Текст #6
Идентификатор : 10
Формат : UTF-8
Идентификатор кодека : S_TEXT/UTF8
Идентификатор кодека/Информация : UTF-8 Plain Text
Заголовок : Commentary by Dan Scanlon, Kori Rae, Kelsey Mann - SDH
Язык : English
Default : Нет
Forced : Нет
Меню
00:00:00.000 : en:Field Trip
00:06:26.719 : en:Titles
00:07:06.884 : en:Freshman Orientation
00:10:54.111 : en:Roommates
00:12:19.947 : en:First Day
00:16:09.968 : en:Not My Room
00:18:15.635 : en:Pig Chase
00:19:37.592 : en:A Challenge
00:21:06.848 : en:1st Semester Showdown
00:23:43.630 : en:Kicked Out
00:29:22.718 : en:Dream Over
00:30:39.462 : en:Mike's Plan
00:33:38.098 : en:OK Brothers
00:36:30.979 : en:Initiation
00:38:19.421 : en:First Morning
00:39:22.567 : en:Toxicity Challenge
00:45:13.334 : en:My Way
00:47:14.831 : en:Keep Quiet
00:51:08.147 : en:Party Like Scarers
00:55:21.192 : en:Cute-me Kappa
00:57:30.321 : en:The Big Leagues
01:01:42.239 : en:Teamwork
01:04:37.289 : en:A Seed Of Doubt
01:07:33.006 : en:Final Competition
01:14:11.320 : en:A Betrayal
01:18:07.848 : en:Door Breach
01:19:25.718 : en:Searching For Mike
01:23:53.402 : en:Shut Down
01:24:38.655 : en:The Big Scare
01:28:00.232 : en:Separate Ways
01:32:51.356 : en:Epilogue
01:34:24.032 : en:End Credits






   Похожие торренты   Торрент   Размер 
В этой теме нет новых непрочитанных сообщений. Университет монстров / Monsters University (2013) BDRip 1080p | D | 3D-Video | HOU | Лицензия

98 | 16

6.95 ГБ

В этой теме нет новых непрочитанных сообщений. Университет монстров / Monsters University (2013) BDRip 1080p от DHT-Movies | Лицензия

46 | 16

5.19 ГБ

В этой теме нет новых непрочитанных сообщений. Университет монстров / Monsters University (2013) BDRip 1080p от Killbrain and Scarabey | Лицензия

108 | 25

6.47 ГБ

В этой теме нет новых непрочитанных сообщений. Университет монстров / Monsters University (2013) BDRip 1080p | D | 3D-Video | HSBS | Лицензия

35 | 9

7.73 ГБ

В этой теме нет новых непрочитанных сообщений. Университет монстров / Monsters University (2013) BDRip 1080p | 3D-Video | halfOU | Лицензия

75 | 6

6.95 ГБ

В этой теме нет новых непрочитанных сообщений. Корпорация монстров 2 / Университет монстров / Monsters University (2013) BDRip 1080p | Трейлер

335 | 9

43.7 МБ

В этой теме нет новых непрочитанных сообщений. Университет монстров / Monsters University (2013) Blu-Ray 1080p | Лицензия

17 | 2

34.39 ГБ




Вы не можете начинать темы
Вы не можете отвечать на сообщения
Вы не можете редактировать свои сообщения
Вы не можете удалять свои сообщения
Вы не можете добавлять вложения

Перейти:  
Для Мосгорсуда, Роскомнадзора и рекламодателей: mosgorsud-torrent[собачка]yandex.ru
 Вход
ppkBB3cker v.2 © 2008-2014 @ PPK
[ Time : 0.048s | 14 Queries | GZIP : Off ]

Торрент трекер RUTOR.IN, Не можете зайти на rutor.org? Какой новый адрес рутор? Какое зеркало рутор? Не работает rutor.org и зеркала? Тогда наш торрент специально для вас. Rutor.in неофициальное зеркало rutor. В случае если у Вас заблокирован rutor или вдруг Вы не можете на него зайти, то Вы без труда сможете скачать бесплатно и без рекламы последние новинки кино, игр, сериалов и прочего у нас, на Rutor.in. Не нужно использовать прокси, чтобы зайти на рутор, достаточно воспользоваться нашим ресурсом. Все новые фильмы, игры, сериалы, книги и музыка за 2013 и 2014 годы через торрент бесплатно. Скачивайте фильмы в хорошем качестве, игры для пк, xbox, playstation без регистрации. У нас вы найдете новые Зарубежные сериалы и Русские сериалы 2013, 2014, 2015 годов. Оставайтесь с нами, качайте любимые фильмы, игры, сериалы, книги и музыку.