img image001 image001 image001 image001 image001 image001 image001 image001 image001 image001 image001 image001 image001 image001 image001

Planets Sun Sun Sun
Статистика раздачи
Автор: PriZraK | Размер: 5.19 ГБ | Добавлен: 15 фев 2014
Раздают: 46    Качают: 16
Скачать торрент
Скачать торрент
Описание торрента

СообщениеДобавлено: 15 фев 2014 


Университет монстров / Monsters University (2013) BDRip 1080p от DHT-Movies

Название ... : Университет монстров
Оригинальное название ... : Monsters University
Страна ... : США
Жанр ............. : Мультфильм | Фэнтэзи | Комедия
Режиссер ... : Дэн Скэнлон
Перевод ... : Дубляж (Профессиональный[Лицензия BD EUR]) + Оригинал (Английский)
Субтитры ... : Русские / Английские UTF-8 (full)
Навигация по главам...: есть


Роли озвучивали:

Джон Гудман .... Sullivan
Билли Кристал .... Mike
Стив Бушеми .... Randy
Хелен Миррен .... Dean Hardscrabble
Питер Сон .... Squishy
Описание:

Майк и Салли — самые опытные пугатели в Монстрополисе, но так было далеко не всегда. Когда они встретились впервые, эти монстры терпеть друг друга не могли. «Университет Монстров» — история о том, как наши старые знакомые прошли путь от взаимной неприязни к крепкой дружбе.




Год выхода ............. : 2013
Формат ................. : Mkv
Продолжительность ...... : 1 hour 44 mins 17 Secs
Битрейт .. : ~ 5 711 Kbps
Профиль формата.....: High/Level 4.1
Идентификатор кодека ....... : MPEG-4 AVC
Ширина ....... : 1920 Pixels
Высота ....... : 1080 Pixels
Частота кадров ............ : 23.976 fps
Соотношение сторон ........ : 16:9
Аудио кодек /Битрейт ....... : AC3 / 640 Kbps
Канальность / Частота ..... : 6 channels / 48.0 KHz
Исходник ......... : 1080p BluRay AVC TrueHD 7 1 PublicHD

x264 [info]: frame I:1600 Avg QP:15.95 size:194340
x264 [info]: frame P:49284 Avg QP:18.17 size: 52435
x264 [info]: frame B:99151 Avg QP:20.76 size: 16933
x264 [info]: consecutive B-frames: 3.8% 5.5% 64.6% 14.7% 6.6% 4.7%
--------------------------------------------------------------------------------
Format : Matroska
Format version : Version 2
File size : 5.19 GiB
Duration : 1h 44mn
Overall bit rate : 7 127 Kbps
Movie name : avt83@DHT-Movies
Encoded date : UTC 2013-11-01 00:55:15
Writing application : mkvmerge v4.0.0 ('The Stars were mine') сборка от Jun 6 2010 16:18:42
Writing library : libebml v1.0.0 + libmatroska v1.0.0
Attachment : Yes / Yes

Video
ID : 1
Format : AVC
Format/Info : Advanced Video Codec
Format profile : High@L4.1
Format settings, CABAC : Yes
Format settings, ReFrames : 4 frames
Codec ID : V_MPEG4/ISO/AVC
Duration : 1h 44mn
Bit rate : 5 706 Kbps
Width : 1 920 pixels
Height : 1 080 pixels
Display aspect ratio : 16:9
Frame rate mode : Constant
Frame rate : 23.976 fps
Color space : YUV
Chroma subsampling : 4:2:0
Bit depth : 8 bits
Scan type : Progressive
Bits/(Pixel*Frame) : 0.115
Stream size : 4.16 GiB (80%)
Writing library : x264 core 138 r2359+704+48 3f879a0 tMod [8-bit@all X86]
Encoding settings : cabac=1 / ref=4 / deblock=1:-1:-1 / analyse=0x3:0x113 / me=umh / subme=11 / psy=1 / fade_compensate=0.00 / psy_rd=0.85:0.00 / mixed_ref=1 / me_range=24 / chroma_me=1 / trellis=2 / 8x8dct=1 / cqm=0 / deadzone=21,11 / fast_pskip=0 / chroma_qp_offset=-2 / threads=12 / lookahead_threads=1 / sliced_threads=0 / nr=0 / decimate=1 / interlaced=0 / bluray_compat=0 / constrained_intra=0 / fgo=0 / bframes=5 / b_pyramid=2 / b_adapt=2 / b_bias=0 / direct=1 / weightb=1 / open_gop=0 / weightp=2 / keyint=240 / keyint_min=23 / scenecut=40 / intra_refresh=0 / rc_lookahead=40 / rc=crf / mbtree=0 / crf=19.0000 / qcomp=0.70 / qpmin=0:0:0 / qpmax=69:69:69 / qpstep=4 / vbv_maxrate=50000 / vbv_bufsize=62500 / crf_max=0.0 / nal_hrd=none / ip_ratio=1.40 / pb_ratio=1.30 / aq=2:0.80 / aq-sensitivity=10.00 / aq-factor=1.00:1.00:1.00 / aq2=0 / aq3=0
Language : English
Default : No
Forced : No

Audio #1
ID : 2
Format : AC-3
Format/Info : Audio Coding 3
Mode extension : CM (complete main)
Format settings, Endianness : Big
Codec ID : A_AC3
Duration : 1h 44mn
Bit rate mode : Constant
Bit rate : 640 Kbps
Channel count : 6 channels
Channel positions : Front: L C R, Side: L R, LFE
Sampling rate : 48.0 KHz
Bit depth : 16 bits
Compression mode : Lossy
Stream size : 477 MiB (9%)
Title : Дубляж BD EUR
Language : Russian
Default : Yes
Forced : Yes

Audio #2
ID : 3
Format : AC-3
Format/Info : Audio Coding 3
Mode extension : CM (complete main)
Format settings, Endianness : Big
Codec ID : A_AC3
Duration : 1h 44mn
Bit rate mode : Constant
Bit rate : 640 Kbps
Channel count : 6 channels
Channel positions : Front: L C R, Side: L R, LFE
Sampling rate : 48.0 KHz
Bit depth : 16 bits
Compression mode : Lossy
Stream size : 477 MiB (9%)
Title : Оригинал
Language : English
Default : No
Forced : No

Text #1
ID : 4
Format : UTF-8
Codec ID : S_TEXT/UTF8
Codec ID/Info : UTF-8 Plain Text
Title : forsed
Language : Russian
Default : No
Forced : No

Text #2
ID : 5
Format : UTF-8
Codec ID : S_TEXT/UTF8
Codec ID/Info : UTF-8 Plain Text
Title : full
Language : English
Default : No
Forced : No

Text #3
ID : 6
Format : UTF-8
Codec ID : S_TEXT/UTF8
Codec ID/Info : UTF-8 Plain Text
Title : full
Language : Russian
Default : Yes
Forced : Yes

Text #4
ID : 7
Format : UTF-8
Codec ID : S_TEXT/UTF8
Codec ID/Info : UTF-8 Plain Text
Title : SDH
Language : English
Default : No
Forced : No

Menu #1
00:00:00.000 : en:Field Trip
00:06:26.719 : en:Titles
00:07:06.884 : en:Freshman Orientation
00:10:54.111 : en:Roommates
00:12:19.947 : en:First Day
00:16:09.968 : en:Not My Room
00:18:15.635 : en:Pig Chase
00:19:37.592 : en:A Challenge
00:21:06.848 : en:1st Semester Showdown
00:23:43.630 : en:Kicked Out
00:29:22.718 : en:Dream Over
00:30:39.462 : en:Mike's Plan
00:33:38.098 : en:OK Brothers
00:36:30.979 : en:Initiation
00:38:19.421 : en:First Morning
00:39:22.567 : en:Toxicity Challenge
00:45:13.334 : en:My Way
00:47:14.831 : en:Keep Quiet
00:51:08.147 : en:Party Like Scarers
00:55:21.192 : en:Cute-me Kappa
00:57:30.321 : en:The Big Leagues
01:01:42.239 : en:Teamwork
01:04:37.289 : en:A Seed Of Doubt
01:07:33.006 : en:Final Competition
01:14:11.320 : en:A Betrayal
01:18:07.848 : en:Door Breach
01:19:25.718 : en:Searching For Mike
01:23:53.402 : en:Shut Down
01:24:38.655 : en:The Big Scare
01:28:00.232 : en:Separate Ways
01:32:51.356 : en:Epilogue
01:34:24.032 : en:End Credits




   Похожие торренты   Торрент   Размер 
В этой теме нет новых непрочитанных сообщений. Университет монстров / Monsters University (2013) BDRip 1080p | D | Лицензия

174 | 15

11.85 ГБ

В этой теме нет новых непрочитанных сообщений. Университет монстров / Monsters University (2013) BDRip 1080p | D | 3D-Video | HOU | Лицензия

98 | 16

6.95 ГБ

В этой теме нет новых непрочитанных сообщений. Университет монстров / Monsters University (2013) BDRip 1080p | 3D-Video | halfOU | Лицензия

75 | 6

6.95 ГБ

В этой теме нет новых непрочитанных сообщений. Университет монстров / Monsters University (2013) BDRip 1080p | D | 3D-Video | HSBS | Лицензия

35 | 9

7.73 ГБ

В этой теме нет новых непрочитанных сообщений. Университет монстров / Monsters University (2013) BDRip 1080p от Killbrain and Scarabey | Лицензия

113 | 25

6.47 ГБ

В этой теме нет новых непрочитанных сообщений. Корпорация монстров 2 / Университет монстров / Monsters University (2013) BDRip 1080p | Трейлер

335 | 9

43.7 МБ

В этой теме нет новых непрочитанных сообщений. Университет монстров / Monsters University (2013) Blu-Ray 1080p | Лицензия

17 | 2

34.39 ГБ




Вы не можете начинать темы
Вы не можете отвечать на сообщения
Вы не можете редактировать свои сообщения
Вы не можете удалять свои сообщения
Вы не можете добавлять вложения

Перейти:  
Для Мосгорсуда, Роскомнадзора и рекламодателей: mosgorsud-torrent[собачка]yandex.ru
 Вход
ppkBB3cker v.2 © 2008-2014 @ PPK
[ Time : 0.048s | 15 Queries | GZIP : Off ]

Торрент трекер RUTOR.IN, Не можете зайти на rutor.org? Какой новый адрес рутор? Какое зеркало рутор? Не работает rutor.org и зеркала? Тогда наш торрент специально для вас. Rutor.in неофициальное зеркало rutor. В случае если у Вас заблокирован rutor или вдруг Вы не можете на него зайти, то Вы без труда сможете скачать бесплатно и без рекламы последние новинки кино, игр, сериалов и прочего у нас, на Rutor.in. Не нужно использовать прокси, чтобы зайти на рутор, достаточно воспользоваться нашим ресурсом. Все новые фильмы, игры, сериалы, книги и музыка за 2013 и 2014 годы через торрент бесплатно. Скачивайте фильмы в хорошем качестве, игры для пк, xbox, playstation без регистрации. У нас вы найдете новые Зарубежные сериалы и Русские сериалы 2013, 2014, 2015 годов. Оставайтесь с нами, качайте любимые фильмы, игры, сериалы, книги и музыку.
cron