img image001 image001 image001 image001 image001 image001 image001 image001 image001 image001 image001 image001 image001 image001 image001

Planets Sun Sun Sun
Статистика раздачи
Автор: PriZraK | Размер: 2.45 ГБ | Добавлен: 15 фев 2014
Раздают: 42    Качают: 2
Скачать торрент
Скачать торрент
Описание торрента

СообщениеДобавлено: 15 фев 2014 



Информация о фильме

Название: Университет монстров
Оригинальное название: Monsters University
Год выпуска: 2013
Жанр: Мультфильм, фэнтези, комедия, приключения, семейный, полнометражный
Выпущено: США, Pixar Animation Studios, Walt Disney Pictures
Режиссер: Дэн Скэнлон
В ролях: Джон Гудмен, Билли Кристал, Стив Бушеми, Хелен Миррен, Питер Сон, Джоэль Мюррей, Шон Хейс, Дэйв Фоли, Чарли Дэй, Альфред Молина, Натан Филлион, Обри Плаза, Бобби Мойнихэн мл.

О фильме: Майк и Салли — самые опытные пугатели в Монстрополисе, но так было далеко не всегда. Когда они встретились впервые, эти совершенно непохожие друг на друга монстры терпеть друг друга не могли. «Университет Монстров» — история о том, как наши старые знакомые прошли путь от взаимной неприязни к крепкой дружбе.

Файл

Качество: BDRip (AVC)
Видео: MPEG-4 AVC, 2475 Кбит/с, 1024x576
Аудио: Русский, английский (AC3, 6 ch, 448 Кбит/с)
Размер: 2.45 ГБ
Продолжительность: 01:44:17
Перевод: Дублированный
Субтитры: Русские, английские
Раздача, с локализованным русским видеорядом!
Общее
Уникальный идентификатор : 196489995322754640601376441569696343821 (0x93D298B93C21B9F48507025E4434E70D)
Полное имя : C:ЗагрузкиMonsters.Universit.2013.D.x264.BDRip.(AVC).ExKinoRay.mkv
Формат : Matroska
Версия формата : Version 2
Размер файла : 2,45 Гбайт
Продолжительность : 1 ч. 44 м.
Общий поток : 3363 Кбит/сек
Название фильма : Университет монстров.2013.(Локализованный русский видеоряд).Rip by: ollan
Дата кодирования : UTC 2013-11-01 21:32:05
Программа кодирования : mkvmerge v5.6.0 ('Kenya Kane') built on May 27 2012 16:44:04
Библиотека кодирования : libebml v1.2.3 + libmatroska v1.3.0
Attachment : Yes / Yes

Видео
Идентификатор : 1
Формат : AVC
Формат/Информация : Advanced Video Codec
Профиль формата : High@L4.1
Параметр CABAC формата : Да
Параметр ReFrames формата : 9 кадров
Идентификатор кодека : V_MPEG4/ISO/AVC
Продолжительность : 1 ч. 44 м.
Битрейт : 2475 Кбит/сек
Ширина : 1024 пикселя
Высота : 576 пикселей
Соотношение сторон : 16:9
Режим частоты кадров : Постоянный
Частота кадров : 23,976 кадра/сек
Цветовое пространство : YUV
Субдискретизация насыщенности : 4:2:0
Битовая глубина : 8 бит
Тип развёртки : Прогрессивная
Бит/(Пиксели*Кадры) : 0.175
Размер потока : 1,75 Гбайт (71%)
Библиотека кодирования : x264 core 125 r2200 999b753
Настройки программы : cabac=1 / ref=9 / deblock=1:-3:-3 / analyse=0x3:0x133 / me=umh / subme=11 / psy=1 / psy_rd=1.00:0.10 / mixed_ref=1 / me_range=32 / chroma_me=1 / trellis=2 / 8x8dct=1 / cqm=0 / deadzone=21,11 / fast_pskip=0 / chroma_qp_offset=-3 / threads=12 / lookahead_threads=2 / sliced_threads=0 / nr=0 / decimate=0 / interlaced=0 / bluray_compat=0 / constrained_intra=0 / bframes=11 / b_pyramid=2 / b_adapt=2 / b_bias=0 / direct=3 / weightb=1 / open_gop=0 / weightp=2 / keyint=240 / keyint_min=23 / scenecut=40 / intra_refresh=0 / rc_lookahead=40 / rc=2pass / mbtree=1 / bitrate=2475 / ratetol=1.0 / qcomp=0.60 / qpmin=0 / qpmax=69 / qpstep=4 / cplxblur=20.0 / qblur=0.5 / vbv_maxrate=5000 / vbv_bufsize=62500 / nal_hrd=none / ip_ratio=1.40 / aq=1:1.00
Язык : Russian
Default : Да
Forced : Да

Аудио #1
Идентификатор : 2
Формат : AC-3
Формат/Информация : Audio Coding 3
Расширение режима : CM (complete main)
Параметр Endianness формата : Big
Идентификатор кодека : A_AC3
Продолжительность : 1 ч. 44 м.
Вид битрейта : Постоянный
Битрейт : 448 Кбит/сек
Каналы : 6 каналов
Расположение каналов : Front: L C R, Side: L R, LFE
Частота : 48,0 КГц
Битовая глубина : 16 бит
Метод сжатия : С потерями
Размер потока : 334 Мбайт (13%)
Заголовок : Дублированный (Лицензия)
Язык : Russian
Default : Да
Forced : Да

Аудио #2
Идентификатор : 3
Формат : AC-3
Формат/Информация : Audio Coding 3
Расширение режима : CM (complete main)
Параметр Endianness формата : Big
Идентификатор кодека : A_AC3
Продолжительность : 1 ч. 44 м.
Вид битрейта : Постоянный
Битрейт : 448 Кбит/сек
Каналы : 6 каналов
Расположение каналов : Front: L C R, Side: L R, LFE
Частота : 48,0 КГц
Битовая глубина : 16 бит
Метод сжатия : С потерями
Размер потока : 334 Мбайт (13%)
Язык : English
Default : Нет
Forced : Нет

Текст #1
Идентификатор : 4
Формат : UTF-8
Идентификатор кодека : S_TEXT/UTF8
Идентификатор кодека/Информация : UTF-8 Plain Text
Язык : Russian
Default : Нет
Forced : Нет

Текст #2
Идентификатор : 5
Формат : UTF-8
Идентификатор кодека : S_TEXT/UTF8
Идентификатор кодека/Информация : UTF-8 Plain Text
Язык : English
Default : Нет
Forced : Нет

Меню
00:00:00.000 : ru:Экскурсия
00:06:26.720 : ru:Начальные титры
00:07:06.885 : ru:Первокурсник!
00:10:54.112 : ru:Соседи по комнате
00:12:19.947 : ru:Первый день
00:16:09.969 : ru:Не моя комната
00:18:15.636 : ru:Погоня за свинкой
00:19:37.593 : ru:Вызов
00:21:06.849 : ru:Первый семестр
00:23:43.630 : ru:Выгнали
00:29:22.719 : ru:Конец мечте
00:30:39.462 : ru:План Майка
00:33:38.099 : ru:Общажный кошмар
00:36:30.980 : ru:Посвящение
00:38:19.422 : ru:Первое утро
00:39:22.568 : ru:Токсический тоннель
00:45:13.335 : ru:Я делаю так
00:47:14.832 : ru:Соблюдайте тишину
00:51:08.148 : ru:Вечеринка
00:55:21.192 : ru:Очаравашки из общаги
00:57:30.321 : ru:Высшая лига
01:01:42.240 : ru:Одна комната
01:04:37.290 : ru:Зерно сомнения
01:07:33.007 : ru:Последнее соревнование
01:14:11.321 : ru:Предательство
01:18:07.849 : ru:Дверь взломана
01:19:25.719 : ru:В поисках Майка
01:23:53.403 : ru:Закрыли
01:24:38.656 : ru:Ужасно страшно
01:28:00.233 : ru:У каждого свой путь
01:32:51.357 : ru:Эпилог
01:34:24.033 : ru:Финальные титры








Релиз от: Rip by:



   Похожие торренты   Торрент   Размер 
В этой теме нет новых непрочитанных сообщений. Корпорация монстров / Monsters, Inc. / Университет монстров / Monsters University (2001-2013) BDRip 720p от Leonardo and Scarabey | iPad

657 | 191

3.31 ГБ

В этой теме нет новых непрочитанных сообщений. Университет монстров / Monsters University (2013) BDRip | D | Лицензия

388 | 12

1.46 ГБ

В этой теме нет новых непрочитанных сообщений. Университет монстров / Monsters University (2013) BDRip | D | лицензия

40 | 6

744.59 МБ

В этой теме нет новых непрочитанных сообщений. Университет монстров / Monsters University (2013) BDRip-AVC от HELLYWOOD | Лицензия

327 | 11

1.46 ГБ

В этой теме нет новых непрочитанных сообщений. Университет монстров / Monsters University (2013) BDRip от HQCLUB | Лицензия

1758 | 67

2.18 ГБ

В этой теме нет новых непрочитанных сообщений. Университет монстров / Monsters University (2013) BDRip-AVC от HELLYWOOD | Лицензия

84 | 4

2.19 ГБ

В этой теме нет новых непрочитанных сообщений. Университет монстров / Monsters University (2013) BDRip 1080p | D | Лицензия

174 | 15

11.85 ГБ




Вы не можете начинать темы
Вы не можете отвечать на сообщения
Вы не можете редактировать свои сообщения
Вы не можете удалять свои сообщения
Вы не можете добавлять вложения

Перейти:  
Для Мосгорсуда, Роскомнадзора и рекламодателей: mosgorsud-torrent[собачка]yandex.ru
 Вход
ppkBB3cker v.2 © 2008-2014 @ PPK
[ Time : 0.042s | 15 Queries | GZIP : Off ]

cron