img image001 image001 image001 image001 image001 image001 image001 image001 image001 image001 image001 image001 image001 image001 image001

Planets Sun Sun Sun
Статистика раздачи
Автор: PriZraK | Размер: 2.31 ГБ | Добавлен: 15 фев 2014
Раздают: 7    Качают: 2
Скачать торрент
Скачать торрент
Описание торрента

СообщениеДобавлено: 15 фев 2014 




Информация о фильме
Название: Университет монстров
Оригинальное название: Monsters University
Год выхода: 2013
Жанр: мультфильм, фэнтези, комедия, приключения, семейный, полнометражный
Режиссер: Дэн Скэнлон
В ролях: Джон Гудмен, Билли Кристал, Стив Бушеми, Хелен Миррен, Питер Сон, Джоэль Мюррей, Шон Хейс, Дэйв Фоли, Чарли Дэй, Альфред Молина, Натан Филлион, Обри Плаза, Бобби Мойнихэн мл.

О фильме:
Майк и Салли — самые опытные пугатели в Монстрополисе, но так было далеко не всегда. Когда они встретились впервые, эти совершенно непохожие друг на друга монстры терпеть друг друга не могли. «Университет Монстров» — история о том, как наши старые знакомые прошли путь от взаимной неприязни к крепкой дружбе.



Страна: США
Студия: Pixar Animation Studios, Walt Disney Pictures
Продолжительность: 01:43:47
Перевод: Дублированный, профессиональный (многоголосый закадровый)

Файл
Кодек: h.264
Качество: BDRip-AVC
Видео: 2013 Кбит/с, 1024x576, 23.76 кадр/с

Звук:
• №1: Русский (АС3, 6 ch, 384 Кбит/с) Дублированный
• №2: Русский (АС3, 6 ch, 384 Кбит/с) Профессиональный многоголосый [Baibako]
• №3: Английский (АС3, 6 ch, 384 Кбит/с)

Субтитры:
• №1: Русские [полные]
• №2: Английские [полные]
• №3: Английские [SDH]
• №4: Английские [SDH, цветные]

В релизе локализованный русский видеоряд

---------------------------------------------------------------------------
x264 [info]: frame I:1469 Avg QP:15.46 size: 88660
x264 [info]: frame P:40160 Avg QP:19.22 size: 21294
x264 [info]: frame B:108407 Avg QP:21.10 size: 5516
---------------------------------------------------------------------------

Полное имя : Monsters.University.2013.x264.BDRip.(AVC).0ptimus.mkv
Формат : Matroska
Версия формата : Version 4 / Version 2
Размер файла : 2,31 Гбайт
Продолжительность : 1 ч. 44 м.
Общий поток : 3175 Кбит/сек
Название фильма : Университет монстров | Monsters University [2013] -=BDRip (AVC) by 0ptimus=-
Дата кодирования : UTC 2013-11-02 09:58:05
Программа кодирования : mkvmerge v6.1.0 ('Old Devil') built on Mar 2 2013 14:32:37
Библиотека кодирования : libebml v1.3.0 + libmatroska v1.4.0

Видео
Идентификатор : 1
Формат : AVC
Формат/Информация : Advanced Video Codec
Профиль формата : High@L4.1
Параметр CABAC формата : Да
Параметр ReFrames формата : 8 кадров
Идентификатор кодека : V_MPEG4/ISO/AVC
Продолжительность : 1 ч. 44 м.
Битрейт : 2013 Кбит/сек
Ширина : 1024 пикселя
Высота : 576 пикселей
Соотношение сторон : 16:9
Частота кадров : 23,976 кадра/сек
Цветовое пространство : YUV
Субдискретизация насыщенности : 4:2:0
Битовая глубина : 8 бит
Тип развёртки : Прогрессивная
Бит/(Пиксели*Кадры) : 0.142
Размер потока : 1,43 Гбайт (62%)
Заголовок : Rip by 0ptimus
Библиотека кодирования : x264 core 133 r2334 a3ac64b
Настройки программы : cabac=1 / ref=8 / deblock=1:-3:-3 / analyse=0x3:0x113 / me=umh / subme=10 / psy=1 / psy_rd=1.00:0.20 / mixed_ref=1 / me_range=32 / chroma_me=1 / trellis=2 / 8x8dct=1 / cqm=0 / deadzone=21,11 / fast_pskip=0 / chroma_qp_offset=-3 / threads=3 / lookahead_threads=1 / sliced_threads=0 / nr=0 / decimate=0 / interlaced=0 / bluray_compat=0 / constrained_intra=0 / bframes=10 / b_pyramid=2 / b_adapt=2 / b_bias=0 / direct=3 / weightb=1 / open_gop=0 / weightp=2 / keyint=240 / keyint_min=23 / scenecut=40 / intra_refresh=0 / rc_lookahead=40 / rc=2pass / mbtree=0 / bitrate=2013 / ratetol=1.0 / qcomp=0.60 / qpmin=0 / qpmax=69 / qpstep=4 / cplxblur=20.0 / qblur=0.5 / vbv_maxrate=50000 / vbv_bufsize=50000 / nal_hrd=none / ip_ratio=1.40 / pb_ratio=1.30 / aq=1:1.00
Язык : English

Аудио #1
Идентификатор : 2
Формат : AC-3
Формат/Информация : Audio Coding 3
Расширение режима : CM (complete main)
Идентификатор кодека : A_AC3
Продолжительность : 1 ч. 44 м.
Вид битрейта : Постоянный
Битрейт : 384 Кбит/сек
Каналы : 6 каналов
Расположение каналов : Front: L C R, Side: L R, LFE
Частота : 48,0 КГц
Битовая глубина : 16 бит
Метод сжатия : С потерями
Размер потока : 286 Мбайт (12%)
Заголовок : Дублированный [BD CEE] AC3 5.1 @ 384 kbps
Язык : Russian

Аудио #2
Идентификатор : 3
Формат : AC-3
Формат/Информация : Audio Coding 3
Расширение режима : CM (complete main)
Идентификатор кодека : A_AC3
Продолжительность : 1 ч. 44 м.
Вид битрейта : Постоянный
Битрейт : 384 Кбит/сек
Каналы : 6 каналов
Расположение каналов : Front: L C R, Side: L R, LFE
Частота : 48,0 КГц
Битовая глубина : 16 бит
Метод сжатия : С потерями
Размер потока : 286 Мбайт (12%)
Заголовок : Многоголосый закадровый [Baibako] AC3 5.1 @ 384 kbps
Язык : Russian

Аудио #3
Идентификатор : 4
Формат : AC-3
Формат/Информация : Audio Coding 3
Расширение режима : CM (complete main)
Идентификатор кодека : A_AC3
Продолжительность : 1 ч. 44 м.
Вид битрейта : Постоянный
Битрейт : 384 Кбит/сек
Каналы : 6 каналов
Расположение каналов : Front: L C R, Side: L R, LFE
Частота : 48,0 КГц
Битовая глубина : 16 бит
Метод сжатия : С потерями
Размер потока : 286 Мбайт (12%)
Язык : English

Текст #1
Идентификатор : 5
Формат : UTF-8
Идентификатор кодека : S_TEXT/UTF8
Идентификатор кодека/Информация : UTF-8 Plain Text
Язык : Russian

Текст #2
Идентификатор : 6
Формат : UTF-8
Идентификатор кодека : S_TEXT/UTF8
Идентификатор кодека/Информация : UTF-8 Plain Text
Язык : English

Текст #3
Идентификатор : 7
Формат : UTF-8
Идентификатор кодека : S_TEXT/UTF8
Идентификатор кодека/Информация : UTF-8 Plain Text
Заголовок : SDH
Язык : English

Текст #4
Идентификатор : 8
Формат : UTF-8
Идентификатор кодека : S_TEXT/UTF8
Идентификатор кодека/Информация : UTF-8 Plain Text
Заголовок : SDH [colored]
Язык : English

Меню
00:00:00.000 : ru:Экскурсия
00:06:26.720 : ru:Начальные титры
00:07:06.885 : ru:Первокурсник!
00:10:54.112 : ru:Соседи по комнате
00:12:19.947 : ru:Первый день
00:16:09.969 : ru:Не моя комната
00:18:15.636 : ru:Погоня за свинкой
00:19:37.593 : ru:Вызов
00:21:06.849 : ru:Первый семестр
00:23:43.630 : ru:Выгнали
00:29:22.719 : ru:Конец мечте
00:30:39.462 : ru:План Майка
00:33:38.099 : ru:Общажный кошмар
00:36:30.980 : ru:Посвящение
00:38:19.422 : ru:Первое утро
00:39:22.568 : ru:Токсический тоннель
00:45:13.335 : ru:Я делаю так
00:47:14.832 : ru:Соблюдайте тишину
00:51:08.148 : ru:Вечеринка
00:55:21.192 : ru:Очаравашки из общаги
00:57:30.321 : ru:Высшая лига
01:01:42.240 : ru:Одна комната
01:04:37.290 : ru:Зерно сомнения
01:07:33.007 : ru:Последнее соревнование
01:14:11.321 : ru:Предательство
01:18:07.849 : ru:Дверь взломана
01:19:25.719 : ru:В поисках Майка
01:23:53.403 : ru:Закрыли
01:24:38.656 : ru:Ужасно страшно
01:28:00.233 : ru:У каждого свой путь
01:32:51.357 : ru:Эпилог
01:34:24.033 : ru:Финальные титры




Релиз от:



   Похожие торренты   Торрент   Размер 
В этой теме нет новых непрочитанных сообщений. Корпорация монстров / Monsters, Inc. / Университет монстров / Monsters University (2001-2013) BDRip 720p от Leonardo and Scarabey | iPad

637 | 185

3.31 ГБ

В этой теме нет новых непрочитанных сообщений. Корпорация монстров 2 / Университет монстров / Monsters University (2013) BDRip 1080p | Трейлер

335 | 9

43.7 МБ

В этой теме нет новых непрочитанных сообщений. Университет монстров / Monsters University (2013) BDRip от HQ-ViDEO

362 | 100

1.74 ГБ

В этой теме нет новых непрочитанных сообщений. Университет монстров / Monsters University (2013) BDRip | D | Лицензия

388 | 12

1.46 ГБ

В этой теме нет новых непрочитанных сообщений. Университет монстров / Monsters University (2013) BDRip 1080p

293 | 19

5.77 ГБ

В этой теме нет новых непрочитанных сообщений. Университет монстров / Monsters University (2013) BDRip 720p

547 | 33

4.37 ГБ

В этой теме нет новых непрочитанных сообщений. Университет монстров / Monsters University (2013) BDRip | D | лицензия

40 | 6

744.59 МБ




Вы не можете начинать темы
Вы не можете отвечать на сообщения
Вы не можете редактировать свои сообщения
Вы не можете удалять свои сообщения
Вы не можете добавлять вложения

Перейти:  
Для Мосгорсуда, Роскомнадзора и рекламодателей: mosgorsud-torrent[собачка]yandex.ru
 Вход
ppkBB3cker v.2 © 2008-2014 @ PPK
[ Time : 0.035s | 15 Queries | GZIP : Off ]

cron