img image001 image001 image001 image001 image001 image001 image001 image001 image001 image001 image001 image001 image001 image001 image001

Planets Sun Sun Sun
Статистика раздачи
Автор: PriZraK | Размер: 3.82 ГБ | Добавлен: 15 фев 2014
Раздают: 22    Качают: 24
Скачать торрент
Скачать торрент
Описание торрента

СообщениеДобавлено: 15 фев 2014 




Информация о фильме
Название: Лоракс
Оригинальное название: The Lorax
Год выхода: 1972
Жанр: Мультфильм, короткометражка, семейный
Режиссер: Хоули Прэтт
В ролях: Боб Холт, Эдди Альберт, Афина Лорде, Харлен Каррахер, Скэтмэн Крозерс, Турль Рейвенскрофт, Вивиан Вэнс

О фильме:
Мальчик приходит в безлесные пустоши на встречу с разорившемся промышленником, который рассказывает историю о том, что с ним произошло. Его трагическая история о том, как он создал процветающий бизнес на бесполезном продукте моды, полученным из деревьев в лесу. Как, несмотря на предупреждения старого мудрого существа Лоракса о тяжелых последствиях его жадности, он стал быстро развивать бизнес, а лес и его обитатели начали страдать.
Огромная благодарность Media-Art-Club за созданный постер к раздаче!
Полное имя : H:ФильмСделать русский переводГотовые сделаные релизыLoraks.1972.x264.Blu-Ray.Remux.1080p.RUS.ENG-MediaClub.mkv
Формат : Matroska
Версия формата : Version 2
Размер файла : 3,82 Гбайт
Продолжительность : 24 м.
Режим общего битрейта : Переменный
Общий поток : 21,9 Мбит/сек
Название фильма : Loraks (1972) Blu-ray Remux 1080p=MediaClub=-[Викс]-
Дата кодирования : UTC 2013-11-02 12:59:23
Программа кодирования : mkvmerge v5.8.0 ('No Sleep / Pillow') built on Sep 2 2012 15:37:04
Библиотека кодирования : libebml v1.2.3 + libmatroska v1.3.0

Видео
Идентификатор : 1
Формат : AVC
Формат/Информация : Advanced Video Codec
Профиль формата : High@L4.1
Параметр CABAC формата : Да
Параметр ReFrames формата : 2 кадра
Параметр GOP формата : M=1, N=10
Идентификатор кодека : V_MPEG4/ISO/AVC
Продолжительность : 24 м.
Вид битрейта : Переменный
Битрейт : 20,5 Мбит/сек
Ширина : 1920 пикселей
Высота : 1080 пикселей
Соотношение сторон : 16:9
Режим частоты кадров : Постоянный
Частота кадров : 23,976 кадра/сек
Цветовое пространство : YUV
Субдискретизация насыщенности : 4:2:0
Битовая глубина : 8 бит
Тип развёртки : Прогрессивная
Бит/(Пиксели*Кадры) : 0.412
Размер потока : 3,58 Гбайт (94%)
Язык : English
Default : Да
Forced : Нет

Аудио #1
Идентификатор : 2
Формат : AC-3
Формат/Информация : Audio Coding 3
Расширение режима : CM (complete main)
Параметр Endianness формата : Big
Идентификатор кодека : A_AC3
Продолжительность : 24 м.
Вид битрейта : Постоянный
Битрейт : 192 Кбит/сек
Каналы : 2 канала
Расположение каналов : Front: L R
Частота : 48,0 КГц
Битовая глубина : 16 бит
Метод сжатия : С потерями
Размер потока : 34,3 Мбайт (1%)
Заголовок : AP (Dolskij)
Язык : Russian
Default : Да
Forced : Нет

Аудио #2
Идентификатор : 3
Формат : DTS
Формат/Информация : Digital Theater Systems
Режим : 16
Параметр Endianness формата : Big
Идентификатор кодека : A_DTS
Продолжительность : 24 м.
Вид битрейта : Постоянный
Битрейт : 768 Кбит/сек
Каналы : 1 канал
Расположение каналов : Front: C
Частота : 48,0 КГц
Битовая глубина : 24 бит
Метод сжатия : С потерями
Размер потока : 137 Мбайт (4%)
Язык : English
Default : Нет
Forced : Нет

Текст #1
Идентификатор : 4
Формат : PGS
Идентификатор кодека : S_HDMV/PGS
Идентификатор кодека/Информация : The same subtitle format used on BDs/HD-DVDs
Заголовок : SDH
Язык : English
Default : Нет
Forced : Нет

Текст #2
Идентификатор : 5
Формат : PGS
Идентификатор кодека : S_HDMV/PGS
Идентификатор кодека/Информация : The same subtitle format used on BDs/HD-DVDs
Заголовок : Latin American Spanish
Язык : Spanish
Default : Нет
Forced : Нет

Меню
00:00:00.000 : en:00:00:00.000
00:12:12.732 : en:00:12:12.732
00:24:15.537 : en:00:24:15.537


Страна: США
Студия: The Cat in the Hat Productions, Columbia Broadcasting System (CBS), DePatie-Freleng Enterprises (DFE)
Продолжительность: 00:24:58
Перевод: Авторский одноголосый (А. Дольский)

Файл
Кодек: x264
Качество: Blu-ray Remux 1080p
Видео: MPEG-4 AVC, 20.5 Мбит/с, 1920x1080, 23.976 кадр/с
Звук:
Аудио #1: Русский (AC3, 2 ch, 192 Кбит/с) / Авторский одноголосый (А. Дольский)
Аудио #2: Английский (DTS, 1 ch, 768 Кбит/с)
Субтитры: Английские, испанские

Семпл



Релиз от: Работа с аудио - Викс



   Похожие торренты   Торрент   Размер 
В этой теме нет новых непрочитанных сообщений. Лоракс / The Lorax (1972) BDRip 1080p от MediaClub | A

40 | 7

2.61 ГБ

В этой теме нет новых непрочитанных сообщений. Лоракс / The Lorax (1972) BDRip MediaClub | A

4 | 6

353.12 МБ

В этой теме нет новых непрочитанных сообщений. Лоракс / The Lorax (1972) BDRip 720p от MediaClub

8 | 6

1.39 ГБ

В этой теме нет новых непрочитанных сообщений. Лоракс / The Lorax (2012) BDRip 1080p

125 | 18

4.37 ГБ

В этой теме нет новых непрочитанных сообщений. Лоракс / The Lorax (2012) BDRip 1080p от NoLimits-Team

53 | 5

7.96 ГБ

В этой теме нет новых непрочитанных сообщений. Лоракс / The Lorax (2012) BDRip 1080p от Youtracker | 3D-Video

29 | 5

7.93 ГБ

В этой теме нет новых непрочитанных сообщений. Лоракс / Dr. Seuss' The Lorax (2012) BDRemux 1080p | Лицензия

2 | 5

22.71 ГБ




Вы не можете начинать темы
Вы не можете отвечать на сообщения
Вы не можете редактировать свои сообщения
Вы не можете удалять свои сообщения
Вы не можете добавлять вложения

Перейти:  
Для Мосгорсуда, Роскомнадзора и рекламодателей: mosgorsud-torrent[собачка]yandex.ru
 Вход
ppkBB3cker v.2 © 2008-2014 @ PPK
[ Time : 0.022s | 17 Queries | GZIP : On ]

Торрент трекер RUTOR.IN, Не можете зайти на rutor.org? Какой новый адрес рутор? Какое зеркало рутор? Не работает rutor.org и зеркала? Тогда наш торрент специально для вас. Rutor.in неофициальное зеркало rutor. В случае если у Вас заблокирован rutor или вдруг Вы не можете на него зайти, то Вы без труда сможете скачать бесплатно и без рекламы последние новинки кино, игр, сериалов и прочего у нас, на Rutor.in. Не нужно использовать прокси, чтобы зайти на рутор, достаточно воспользоваться нашим ресурсом. Все новые фильмы, игры, сериалы, книги и музыка за 2013 и 2014 годы через торрент бесплатно. Скачивайте фильмы в хорошем качестве, игры для пк, xbox, playstation без регистрации. У нас вы найдете новые Зарубежные сериалы и Русские сериалы 2013, 2014, 2015 годов. Оставайтесь с нами, качайте любимые фильмы, игры, сериалы, книги и музыку.