img image001 image001 image001 image001 image001 image001 image001 image001 image001 image001 image001 image001 image001 image001 image001

Planets Sun Sun Sun
Статистика раздачи
Автор: PriZraK | Размер: 19.55 ГБ | Добавлен: 15 фев 2014
Раздают: 62    Качают: 22
Скачать торрент
Скачать торрент
Описание торрента

СообщениеДобавлено: 15 фев 2014 




Информация о фильме
Название: Семейка Крудс
Оригинальное название: The Croods
Год выхода: 2013
Жанр: Комедия, мультфильм, приключения, семейный, полнометражный
Режиссер: Крис Сандерс, Кирк де Микко
В ролях: Эмма Стоун, Райан Рейнольдс, Николас Кейдж, Кэтрин Кинер, Клорис Личмен, Кларк Дьюк, Крис Сандерс

О фильме:
Чего только не сделаешь ради сохранения семьи, несмотря на то, что она доисторическая! Вот и мужественный глава семейства был твёрдо уверен - главное не позволять никогда и ничего менять и всегда жить "как в каменном веке" - по своим привычным правилам, в своей известной вдоль и поперёк пещере! И может, всё бы так и было бы, но однажды землетрясение нарушает привычный жизненный уклад и вынуждает срочно искать другую, неизвестную пока, пещеру, в непонятном и переменчивом мире, полном страшных опасностей и разных незнакомцев всех видов и мастей! Будет ли той семейке и на новом месте веселее вместе и что поможет ей выжить и достичь заветной цели?
Страна: США
Студия: Dream Works Animation
Продолжительность: 01:38:36
Перевод: Дублированный [лицензия]

Файл
Кодек: H.264/High@L4.1/3 frames
Качество: BDRemux 1080p
Видео: MPEG-4 AVC, 27963 Кбит/с, 1920x1080, 23.976 кадр/с
Звук: Русский (AC3, 6 ch, 640 Кбит/с)

General
Unique ID : 177078736747709234301076985679894358173 (0x85381FC90F1E74C1A823A29692B9289D)
Complete name : G:3.1 МультфильмыThe Croods 2013 BDRemux 1920х816 27.8-28.4 0.56.mkv
Format : Matroska
Format version : Version 2
File size : 19.6 GiB
Duration : 1h 38mn
Overall bit rate mode : Variable
Overall bit rate : 28.4 Mbps
Encoded date : UTC 2013-09-19 16:34:15
Writing application : mkvmerge v5.4.0 ('Piper') built on Mar 10 2012 13:34:39
Writing library : libebml v1.2.3 + libmatroska v1.3.0

Video
ID : 1
Format : AVC
Format/Info : Advanced Video Codec
Format profile : High@L4.1
Format settings, CABAC : Yes
Format settings, ReFrames : 3 frames
Codec ID : V_MPEG4/ISO/AVC
Duration : 1h 38mn
Bit rate mode : Variable
Bit rate : 27.2 Mbps
Maximum bit rate : 30.0 Mbps
Width : 1 920 pixels
Height : 1 080 pixels
Display aspect ratio : 16:9
Frame rate mode : Constant
Frame rate : 23.976 fps
Color space : YUV
Chroma subsampling : 4:2:0
Bit depth : 8 bits
Scan type : Progressive
Bits/(Pixel*Frame) : 0.547
Stream size : 18.7 GiB (96%)
Default : Yes
Forced : No

Audio
ID : 2
Format : AC-3
Format/Info : Audio Coding 3
Mode extension : CM (complete main)
Format settings, Endianness : Big
Codec ID : A_AC3
Duration : 1h 38mn
Bit rate mode : Constant
Bit rate : 640 Kbps
Channel(s) : 6 channels
Channel positions : Front: L C R, Side: L R, LFE
Sampling rate : 48.0 KHz
Bit depth : 16 bits
Compression mode : Lossy
Stream size : 451 MiB (2%)
Language : Russian
Default : Yes
Forced : No




   Похожие торренты   Торрент   Размер 
В этой теме нет новых непрочитанных сообщений. Семейка Крудс / The Croods (2013) DVDRip от -=HD-NET=-| КПК | D | Лицензия

204 | 10

441.15 МБ

В этой теме нет новых непрочитанных сообщений. Семейка Крудс / The Croods (2013) BDRip 1080p | 60 fps | D, A

708 | 76

9.85 ГБ

В этой теме нет новых непрочитанных сообщений. Семейка Крудс / The Croods (2013) DVD9 от New-Team | D | Лицензия

24 | 6

6.93 ГБ

В этой теме нет новых непрочитанных сообщений. Семейка Крудс / The Croods (2013) BDRip

1761 | 94

2.19 ГБ

В этой теме нет новых непрочитанных сообщений. Семейка Крудс / The Croods (2013) BDRip-AVC | D, A

154 | 13

3.1 ГБ

В этой теме нет новых непрочитанных сообщений. Семейка Крудс / The Croods (2013) HDRip | Трейлер

82 | 4

107.33 МБ

В этой теме нет новых непрочитанных сообщений. OST - Семейка Крудс / The Croods [Original Soundtrack] (2013) MP3

14 | 2

167 МБ




Вы не можете начинать темы
Вы не можете отвечать на сообщения
Вы не можете редактировать свои сообщения
Вы не можете удалять свои сообщения
Вы не можете добавлять вложения

Перейти:  
Для Мосгорсуда, Роскомнадзора и рекламодателей: mosgorsud-torrent[собачка]yandex.ru
 Вход
ppkBB3cker v.2 © 2008-2014 @ PPK
[ Time : 0.024s | 13 Queries | GZIP : Off ]
CGP output time : 0.066s | 5 Queries | GZIP : Off

Торрент трекер RUTOR.IN, Не можете зайти на rutor.org? Какой новый адрес рутор? Какое зеркало рутор? Не работает rutor.org и зеркала? Тогда наш торрент специально для вас. Rutor.in неофициальное зеркало rutor. В случае если у Вас заблокирован rutor или вдруг Вы не можете на него зайти, то Вы без труда сможете скачать бесплатно и без рекламы последние новинки кино, игр, сериалов и прочего у нас, на Rutor.in. Не нужно использовать прокси, чтобы зайти на рутор, достаточно воспользоваться нашим ресурсом. Все новые фильмы, игры, сериалы, книги и музыка за 2013 и 2014 годы через торрент бесплатно. Скачивайте фильмы в хорошем качестве, игры для пк, xbox, playstation без регистрации. У нас вы найдете новые Зарубежные сериалы и Русские сериалы 2013, 2014, 2015 годов. Оставайтесь с нами, качайте любимые фильмы, игры, сериалы, книги и музыку.