img image001 image001 image001 image001 image001 image001 image001 image001 image001 image001 image001 image001 image001 image001 image001

Planets Sun Sun Sun
Статистика раздачи
Автор: PriZraK | Размер: 1.46 ГБ | Добавлен: 15 фев 2014
Раздают: 58    Качают: 3
Скачать торрент
Скачать торрент
Описание торрента

СообщениеДобавлено: 15 фев 2014 




Страна: Испания, Италия, Франция / Art'Mell, Baleuko S.L., Film Investment Piedmont (FIP)...
Жанр: мультфильм, комедия, приключения
Год выпуска: 2013
Продолжительность: 01:17:13

Перевод: Профессиональный (дублированный)
Cубтитры: нет
Оригинальная аудиодорожка: нет

Режиссер: Франсис Нилсен / Francis Nielsen

Роли озвучивали: Кристина Хьюз, Питер Хадсон, Кэролин Фаллин, Брайан Вермейр, Бобби Джексон

Роли дублировали: Александр Лаенко, Александр Фильченко, Анна Балицкая, Анна Кикас, Василий Марков

Описание: Овечка Блэки — настоящая чума для всей фермы. Она — постоянный нарушитель спокойствия, энергии у нее на десятерых. Она — черная овечка и очень гордится этим, потому что не хочет быть такой, как все. Животные-соседи называют ее «очаровательным бедствием». Иногда они считают Блэки невыносимой, но в конце концов стараются помочь в осуществлении ее безумных фантазий. И сейчас она просто одержима идеей полета на Луну. А о чем мечтает пес Кануто, охраняющий овец? О том, чтобы стать самым великим псом-охранником овец всех времен. Для этого он учится и трудится как проклятый. Он милый и хороший, и все просто обожают его. Ему нравится тишина и покой. И как такой правильный пес мог полюбить такую вздорную овечку? Несмотря на то, что он и слышать ничего не хотел о ракетах, Кануто решил поддержать свою обожаемую Блэки.
В ходе подготовки полета в какие только приключения они не попадут и каких только героев не встретят: корову — оперную певицу, волка — модного дизайнера, пауков-нелегалов, работающих на швейной фабрике, парочку птиц — участников реалити-шоу, овечку Пинки размером с Годзиллу, и главное — компанию собак, у которых уже есть ракета, практически готовая к запуску…



Качество: DVDRip / DVD5 R5
Формат: AVI

Видео: 720x400 (16:9), 25.000 fps, XVID ~2308 kbps avg, 0.320 bit/pixel
Аудио: Русский 48 kHz, AC3, 6 ch, 384.00 kbps Constant

Раздача от:
Общее
Полное имя : Bleki.letit.na.lunu.2013.D.DVDRip_[New-Team]_by_avproh.avi
Формат : AVI
Формат/Информация : Audio Video Interleave
Размер файла : 1,46 Гбайт
Продолжительность : 1 ч. 17 м.
Общий поток : 2701 Кбит/сек
Программа кодирования : VirtualDubMod 1.5.10.3 | www.virtualdub-fr.org || (build 2550/release)
Библиотека кодирования : VirtualDubMod build 2550/release

Видео
Идентификатор : 0
Формат : MPEG-4 Visual
Профиль формата : Advanced Simple@L5
Параметр BVOP формата : 1
Параметр QPel формата : Нет
Параметр GMC формата : Без точки перехода
Параметр матрицы формата : Выборочная
Идентификатор кодека : XVID
Идентификатор кодека/Подсказка : XviD
Продолжительность : 1 ч. 17 м.
Битрейт : 2308 Кбит/сек
Ширина : 720 пикселей
Высота : 400 пикселей
Соотношение сторон : 16:9
Частота кадров : 25,000 кадров/сек
Цветовое пространство : YUV
Субдискретизация насыщенности : 4:2:0
Битовая глубина : 8 бит
Тип развёртки : Прогрессивная
Метод сжатия : С потерями
Бит/(Пиксели*Кадры) : 0.320
Размер потока : 1,24 Гбайт (85%)
Библиотека кодирования : XviD 73

Аудио
Идентификатор : 1
Формат : AC-3
Формат/Информация : Audio Coding 3
Расширение режима : CM (complete main)
Параметр Endianness формата : Big
Идентификатор кодека : 2000
Продолжительность : 1 ч. 17 м.
Вид битрейта : Постоянный
Битрейт : 384 Кбит/сек
Каналы : 6 каналов
Расположение каналов : Front: L C R, Side: L R, LFE
Частота : 48,0 КГц
Битовая глубина : 16 бит
Метод сжатия : С потерями
Размер потока : 212 Мбайт (14%)
Выравнивание : Разделение по промежуткам
Продолжительность промежутка : 40 мс. (1,00 видеокадр)
Время предзагрузки промежутка : 500 мс.






   Похожие торренты   Торрент   Размер 
В этой теме нет новых непрочитанных сообщений. Блэки летит на Луну / Black to the Moon 3D (2013) DVDRip от New-Team | D | лицензия

6 | 2

744.8 МБ

В этой теме нет новых непрочитанных сообщений. Блэки летит на Луну / Black to the Moon 3D (2013) DVDRip-AVC от New-Team | D | лицензия

26 | 2

1.45 ГБ

В этой теме нет новых непрочитанных сообщений. Блэки летит на Луну / Black to the Moon 3D (2013) DVD5 R5 от New-Team | D | лицензия

7 | 4

4.36 ГБ

В этой теме нет новых непрочитанных сообщений. Блэки летит на Луну / Black to the Moon 2D, 3D (2013) Blu-Ray 1080p от BLUEBIRD | D | Лицензия

31 | 27

16.62 ГБ

В этой теме нет новых непрочитанных сообщений. Блэки летит на Луну / Black to the Moon 3D (2013) BDRip-AVC от MediaClub | Лицензия

219 | 41

1.36 ГБ

В этой теме нет новых непрочитанных сообщений. Блэки летит на Луну / Black to the Moon 3D (2013) BDRemux 1080p от ExKinoRay | D | Лицензия

35 | 23

10.93 ГБ

В этой теме нет новых непрочитанных сообщений. Блэки летит на Луну / Black to the Moon 3D (2013) BDRemux 1080p от ExKinoRay | D | Лицензия

3 | 2

11.29 ГБ




Вы не можете начинать темы
Вы не можете отвечать на сообщения
Вы не можете редактировать свои сообщения
Вы не можете удалять свои сообщения
Вы не можете добавлять вложения

Перейти:  
Для Мосгорсуда, Роскомнадзора и рекламодателей: mosgorsud-torrent[собачка]yandex.ru
 Вход
ppkBB3cker v.2 © 2008-2014 @ PPK
[ Time : 0.033s | 16 Queries | GZIP : Off ]

Торрент трекер RUTOR.IN, Не можете зайти на rutor.org? Какой новый адрес рутор? Какое зеркало рутор? Не работает rutor.org и зеркала? Тогда наш торрент специально для вас. Rutor.in неофициальное зеркало rutor. В случае если у Вас заблокирован rutor или вдруг Вы не можете на него зайти, то Вы без труда сможете скачать бесплатно и без рекламы последние новинки кино, игр, сериалов и прочего у нас, на Rutor.in. Не нужно использовать прокси, чтобы зайти на рутор, достаточно воспользоваться нашим ресурсом. Все новые фильмы, игры, сериалы, книги и музыка за 2013 и 2014 годы через торрент бесплатно. Скачивайте фильмы в хорошем качестве, игры для пк, xbox, playstation без регистрации. У нас вы найдете новые Зарубежные сериалы и Русские сериалы 2013, 2014, 2015 годов. Оставайтесь с нами, качайте любимые фильмы, игры, сериалы, книги и музыку.