img image001 image001 image001 image001 image001 image001 image001 image001 image001 image001 image001 image001 image001 image001 image001

Planets Sun Sun Sun
Статистика раздачи
Автор: PriZraK | Размер: 3.1 ГБ | Добавлен: 15 фев 2014
Раздают: 154    Качают: 13
Скачать торрент
Скачать торрент
Описание торрента

СообщениеДобавлено: 15 фев 2014 



Название: Семейка Крудс
Оригинальное название: The Croods
Год выпуска: 2013
Жанр: Комедия, мультфильм, приключения, семейный, полнометражный
Выпущено: США, Dream Works Animation
Продолжительность: 01:38:37
Перевод: Дублированный, авторский
Субтитры: Русские, английские

Режиссер: Крис Сандерс, Кирк де Микко

В ролях: Эмма Стоун, Райан Рейнольдс, Николас Кейдж, Кэтрин Кинер, Клорис Личмен, Кларк Дьюк, Крис Сандерс

О фильме:
Чего только не сделаешь ради сохранения семьи, несмотря на то, что она доисторическая! Вот и мужественный глава семейства был твёрдо уверен - главное не позволять никогда и ничего менять и всегда жить "как в каменном веке" - по своим привычным правилам, в своей известной вдоль и поперёк пещере! И может, всё бы так и было бы, но однажды землетрясение нарушает привычный жизненный уклад и вынуждает срочно искать другую, неизвестную пока, пещеру, в непонятном и переменчивом мире, полном страшных опасностей и разных незнакомцев всех видов и мастей! Будет ли той семейке и на новом месте веселее вместе и что поможет ей выжить и достичь заветной цели?

Качество: BDRip (AVC)
Видео: MPEG-4 AVC, 2700 Кбит/с, 1024x436, 23.976 кадр/с
Аудио 1: AC3, 448 Кбит/сек (6ch), 48,0 КГц, 16 бит [Русский, Дубляж]
Аудио 2: AC3, 448 Кбит/сек (2ch), 48,0 КГц, 16 бит [Русский, AVO Ю. Сербин]
Аудио 3: AC3, 448 Кбит/сек (6ch), 48,0 КГц, 16 бит [Русский, AVO Л.Володарский]
Аудио 4: AC3, 448 Кбит/сек (6ch), 48,0 КГц, 16 бит [Английский]

Релиз: NNM-CLUB

Формат : Matroska
Версия формата : Version 2
Размер файла : 3,10 Гбайт
Продолжительность : 1 ч. 38 м.
Общий поток : 4494 Кбит/сек
Название фильма : Semeika.Kruds.2013.BDRip.h264.
Дата кодирования : UTC 2013-10-21 03:09:51
Программа кодирования : mkvmerge v2.9.9 ('Tutu') built on Nov 25 2009 21:13:32
Библиотека кодирования : libebml v0.7.9 + libmatroska v0.8.1

Видео
Идентификатор : 1
Формат : AVC
Формат/Информация : Advanced Video Codec
Профиль формата : High@L4.1
Параметр CABAC формата : Да
Параметр ReFrames формата : 9 кадров
Идентификатор кодека : V_MPEG4/ISO/AVC
Продолжительность : 1 ч. 38 м.
Битрейт : 2700 Кбит/сек
Ширина : 1024 пикселя
Высота : 436 пикселей
Соотношение сторон : 2,35:1
Режим частоты кадров : Постоянный
Частота кадров : 23,976 кадра/сек
Цветовое пространство : YUV
Субдискретизация насыщенности : 4:2:0
Битовая глубина : 8 бит
Тип развёртки : Прогрессивная
Бит/(Пиксели*Кадры) : 0.252
Размер потока : 1,80 Гбайт (58%)
Библиотека кодирования : x264 core 133 r2334 a3ac64b
Настройки программы : cabac=1 / ref=9 / deblock=1:-3:-3 / analyse=0x3:0x133 / me=umh / subme=11 / psy=1 / psy_rd=1.00:0.20 / mixed_ref=1 / me_range=48 / chroma_me=1 / trellis=2 / 8x8dct=1 / cqm=0 / deadzone=21,11 / fast_pskip=0 / chroma_qp_offset=-3 / threads=12 / lookahead_threads=3 / sliced_threads=0 / nr=0 / decimate=0 / interlaced=0 / bluray_compat=0 / constrained_intra=0 / bframes=10 / b_pyramid=2 / b_adapt=2 / b_bias=0 / direct=3 / weightb=1 / open_gop=0 / weightp=2 / keyint=240 / keyint_min=23 / scenecut=40 / intra_refresh=0 / rc_lookahead=40 / rc=2pass / mbtree=1 / bitrate=2700 / ratetol=1.0 / qcomp=0.60 / qpmin=0 / qpmax=69 / qpstep=4 / cplxblur=20.0 / qblur=0.5 / ip_ratio=1.40 / aq=1:0.60
Default : Нет
Forced : Да

Аудио #1
Идентификатор : 2
Формат : AC-3
Формат/Информация : Audio Coding 3
Расширение режима : CM (complete main)
Параметр Endianness формата : Big
Идентификатор кодека : A_AC3
Продолжительность : 1 ч. 38 м.
Вид битрейта : Постоянный
Битрейт : 448 Кбит/сек
Каналы : 6 каналов
Расположение каналов : Front: L C R, Side: L R, LFE
Частота : 48,0 КГц
Битовая глубина : 16 бит
Метод сжатия : С потерями
Размер потока : 316 Мбайт (10%)
Заголовок : AC3.448.Kbps (6ch) Russian (Дубляж)
Язык : Russian
Default : Да
Forced : Нет

Аудио #2
Идентификатор : 3
Формат : AC-3
Формат/Информация : Audio Coding 3
Расширение режима : CM (complete main)
Параметр Endianness формата : Big
Идентификатор кодека : A_AC3
Продолжительность : 1 ч. 38 м.
Вид битрейта : Постоянный
Битрейт : 448 Кбит/сек
Каналы : 2 канала
Расположение каналов : Front: L R
Частота : 48,0 КГц
Битовая глубина : 16 бит
Метод сжатия : С потерями
Размер потока : 316 Мбайт (10%)
Заголовок : AC3.448.Kbps (6ch) Russian (AVO Ю.Сербин)
Язык : Russian
Default : Нет
Forced : Нет

Аудио #3
Идентификатор : 4
Формат : AC-3
Формат/Информация : Audio Coding 3
Расширение режима : CM (complete main)
Параметр Endianness формата : Big
Идентификатор кодека : A_AC3
Продолжительность : 1 ч. 38 м.
Вид битрейта : Постоянный
Битрейт : 448 Кбит/сек
Каналы : 6 каналов
Расположение каналов : Front: L C R, Side: L R, LFE
Частота : 48,0 КГц
Битовая глубина : 16 бит
Метод сжатия : С потерями
Размер потока : 316 Мбайт (10%)
Заголовок : AC3.448.Kbps (6ch) Russian (AVO Л.Володарский)
Язык : Russian
Default : Нет
Forced : Нет

Аудио #4
Идентификатор : 5
Формат : AC-3
Формат/Информация : Audio Coding 3
Расширение режима : CM (complete main)
Параметр Endianness формата : Big
Идентификатор кодека : A_AC3
Продолжительность : 1 ч. 38 м.
Вид битрейта : Постоянный
Битрейт : 448 Кбит/сек
Каналы : 6 каналов
Расположение каналов : Front: L C R, Side: L R, LFE
Частота : 48,0 КГц
Битовая глубина : 16 бит
Метод сжатия : С потерями
Размер потока : 316 Мбайт (10%)
Заголовок : AC3.448.Kbps (6ch) English
Язык : English
Default : Нет
Forced : Нет

Текст #1
Идентификатор : 6
Формат : UTF-8
Идентификатор кодека : S_TEXT/UTF8
Идентификатор кодека/Информация : UTF-8 Plain Text
Заголовок : Russian (Full)
Язык : Russian
Default : Нет
Forced : Нет

Текст #2
Идентификатор : 7
Формат : UTF-8
Идентификатор кодека : S_TEXT/UTF8
Идентификатор кодека/Информация : UTF-8 Plain Text
Заголовок : English (Full)
Язык : English
Default : Нет
Forced : Нет

Текст #3
Идентификатор : 8
Формат : UTF-8
Идентификатор кодека : S_TEXT/UTF8
Идентификатор кодека/Информация : UTF-8 Plain Text
Заголовок : English (SDH)
Язык : English
Default : Нет
Forced : Нет

Текст #4
Идентификатор : 9
Формат : UTF-8
Идентификатор кодека : S_TEXT/UTF8
Идентификатор кодека/Информация : UTF-8 Plain Text
Заголовок : English (SDH-Colored)
Язык : English
Default : Нет
Forced : Нет

Меню
00:00:00.000 : en:Chapter 01
00:02:34.986 : en:Chapter 02
00:04:51.749 : en:Chapter 03
00:09:01.249 : en:Chapter 04
00:12:21.115 : en:Chapter 05
00:14:04.801 : en:Chapter 06
00:18:33.028 : en:Chapter 07
00:21:56.981 : en:Chapter 08
00:23:24.736 : en:Chapter 09
00:26:49.773 : en:Chapter 10
00:28:37.132 : en:Chapter 11
00:30:25.656 : en:Chapter 12
00:32:48.633 : en:Chapter 13
00:36:03.369 : en:Chapter 14
00:38:33.561 : en:Chapter 15
00:41:34.532 : en:Chapter 16
00:44:38.842 : en:Chapter 17
00:48:02.628 : en:Chapter 18
00:52:10.960 : en:Chapter 19
00:55:17.480 : en:Chapter 20
01:00:14.777 : en:Chapter 21
01:03:58.083 : en:Chapter 22
01:05:48.735 : en:Chapter 23
01:08:44.036 : en:Chapter 24
01:10:47.283 : en:Chapter 25
01:12:37.144 : en:Chapter 26
01:14:01.645 : en:Chapter 27
01:19:48.573 : en:Chapter 28
01:23:09.859 : en:Chapter 29
01:25:16.735 : en:Chapter 30
01:28:04.319 : en:Chapter 31
01:30:02.229 : en:Chapter 32



   Похожие торренты   Торрент   Размер 
В этой теме нет новых непрочитанных сообщений. Семейка Крудс / The Croods (2013) BDRip

1761 | 94

2.19 ГБ

В этой теме нет новых непрочитанных сообщений. Семейка Крудс / The Croods (2013) BDRip 1080p | 60 fps | D, A

708 | 76

9.85 ГБ

В этой теме нет новых непрочитанных сообщений. Семейка Крудс / The Croods (2013) BDRip-AVC | iPhone

570 | 20

1.51 ГБ

В этой теме нет новых непрочитанных сообщений. Семейка Крудс / The Croods (2013) DVDRip от -=HD-NET=-| КПК | D | Лицензия

204 | 10

441.15 МБ

В этой теме нет новых непрочитанных сообщений. Семейка Крудс / The Croods (2013) HDRip | Трейлер

82 | 4

107.33 МБ

В этой теме нет новых непрочитанных сообщений. OST - Семейка Крудс / The Croods [Original Soundtrack] (2013) MP3

14 | 2

167 МБ

В этой теме нет новых непрочитанных сообщений. Семейка Крудс / The Croods (2013) BDRemux 1080p | Лицензия

62 | 22

19.55 ГБ




Вы не можете начинать темы
Вы не можете отвечать на сообщения
Вы не можете редактировать свои сообщения
Вы не можете удалять свои сообщения
Вы не можете добавлять вложения

Перейти:  
Для Мосгорсуда, Роскомнадзора и рекламодателей: mosgorsud-torrent[собачка]yandex.ru
 Вход
ppkBB3cker v.2 © 2008-2014 @ PPK
[ Time : 0.279s | 15 Queries | GZIP : Off ]

Торрент трекер RUTOR.IN, Не можете зайти на rutor.org? Какой новый адрес рутор? Какое зеркало рутор? Не работает rutor.org и зеркала? Тогда наш торрент специально для вас. Rutor.in неофициальное зеркало rutor. В случае если у Вас заблокирован rutor или вдруг Вы не можете на него зайти, то Вы без труда сможете скачать бесплатно и без рекламы последние новинки кино, игр, сериалов и прочего у нас, на Rutor.in. Не нужно использовать прокси, чтобы зайти на рутор, достаточно воспользоваться нашим ресурсом. Все новые фильмы, игры, сериалы, книги и музыка за 2013 и 2014 годы через торрент бесплатно. Скачивайте фильмы в хорошем качестве, игры для пк, xbox, playstation без регистрации. У нас вы найдете новые Зарубежные сериалы и Русские сериалы 2013, 2014, 2015 годов. Оставайтесь с нами, качайте любимые фильмы, игры, сериалы, книги и музыку.