img image001 image001 image001 image001 image001 image001 image001 image001 image001 image001 image001 image001 image001 image001 image001

Planets Sun Sun Sun
Статистика раздачи
Автор: PriZraK | Размер: 5.57 ГБ | Добавлен: 15 фев 2014
Раздают: 59    Качают: 4
Скачать торрент
Скачать торрент
Описание торрента

СообщениеДобавлено: 15 фев 2014 


Турбо в 3Д / Turbo 3D
«Быстрее, еще быстрее!»




Страна: США
Студия: DreamWorks Animation
Жанр: мультфильм, комедия, приключения, семейный, спорт
Год выпуска: 2013
Продолжительность: 01:35:40

Перевод: русский + украинский профессиональные (полное дублирование) [Лицензия, BD EUR]
Оригинальная аудиодорожка: английская
Русские субтитры: есть
Режиссер: Дэвид Сорен / David Soren
Роли озвучивали: Райан Рейнольдс, Пол Джаматти, Майкл Пенья, Снуп Догг, Майя Рудольф, Мишель Родригес, Сэмюэл Л. Джексон, Луис Гусман, Билл Хейдер, Бен Шварц
Роли дублировали: Тимур Родригез, Саймон, Юлия Морозова, Станислав Концевич, Олег Куликович



Ничто так не раздражает темпераментную, мечтающую о скорости улитку с говорящим именем Турбо, как неспешная жизнь, медленные разговоры, заторможенные соседи. Пусть наш герой выглядит большим чудаком в этом вялом, неторопливом мире, пусть он идёт вопреки закону природы о «рождённом ползать», но если в сердце горит «пламенный мотор», а душа верит в чудо, оно просто не имеет права не произойти!


Тип релиза: BDRip 1080p (исходник: Турбо / Turbo (2013)3D Blu-ray Disc [EUR])
Контейнер: MKV
Формат 3D: Half OverUnder / Вертикальная анаморфная стереопара
Порядок ракурсов: левый ракурс первый (верхний)
Поддержка автоматического запуска 3D на вашем TV (frame paking): да
Видео кодек: x264
Аудио кодек: AC3
Видео: AVC / High@L4.1 / 2 pass / 23,976 fps / 1920x1080p (16:9) / 6,8 Mbps / 0.137
Аудио 1: AC3 / 5.1 ch / 448 kbps / Русский дубляж, BD EUR
Аудио 2: AC3 / 5.1 ch / 448 kbps / Украинский дубляж, BD EUR
Аудио 3: AC3 / 5.1 ch / 640 kbps / Английский original, BD EUR
Субтитры: [softsub SRT]
Русские Full, BD EUR
Украинские Full, BD EUR
Английские SDH, BD EUR
Дополнительно: Сохранены оригинальные чаптеры (главы) как на Blu-ray


Раздача от:


АНОНСЫ МОИХ РАЗДАЧ!








Загрузка отдельными файлами:
русский дубляж / DTS / 768 kbps
русский дубляж / AC3 / 448 kbps
украинский дубляж / AC3 / 448 kbps
русские полные BD EUR, SRT
украинские полные BD EUR, SRT
английские SDH BD EUR, SRT







x264 [info]: frame I:1332 Avg QP:15.65 size:203302
x264 [info]: frame P:43077 Avg QP:19.18 size: 62675
x264 [info]: frame B:93231 Avg QP:20.12 size: 20464

Общее
Уникальный идентификатор : 246694630352036927158566284556298217758 (0xB997A8569A4CA3809037254F5509E91E)
Полное имя : F:Скачка торрентTurbo.3D.2013.BDRip1080p.halfOU(Killbrain)_[scarabey.org].mkv
Формат : Matroska
Версия формата : Version 2
Размер файла : 5,57 Гбайт
Продолжительность : 1 ч. 35 м.
Общий поток : 8337 Кбит/сек
Название фильма : Turbo 3D (2013) by Killbrain
Дата кодирования : UTC 2013-11-05 20:51:13
Программа кодирования : mkvmerge v5.8.0 ('No Sleep / Pillow') built on Sep 2 2012 15:37:04
Библиотека кодирования : libebml v1.2.3 + libmatroska v1.3.0

Видео
Идентификатор : 1
Формат : AVC
Формат/Информация : Advanced Video Codec
Профиль формата : High@L4.1
Параметр CABAC формата : Да
Параметр ReFrames формата : 4 кадра
Идентификатор кодека : V_MPEG4/ISO/AVC
Продолжительность : 1 ч. 35 м.
Битрейт : 6800 Кбит/сек
Ширина : 1920 пикселей
Высота : 1080 пикселей
Соотношение сторон : 16:9
Режим частоты кадров : Постоянный
Частота кадров : 23,976 кадра/сек
Цветовое пространство : YUV
Субдискретизация насыщенности : 4:2:0
Битовая глубина : 8 бит
Тип развёртки : Прогрессивная
Бит/(Пиксели*Кадры) : 0.137
Размер потока : 4,43 Гбайт (80%)
Заголовок : Turbo 3D (2013)
Библиотека кодирования : x264 core 138 r2358 9e941d1
Настройки программы : cabac=1 / ref=4 / deblock=1:-2:-2 / analyse=0x3:0x113 / me=umh / subme=10 / psy=1 / psy_rd=1.00:0.40 / mixed_ref=1 / me_range=32 / chroma_me=1 / trellis=2 / 8x8dct=1 / cqm=0 / deadzone=21,11 / fast_pskip=0 / chroma_qp_offset=-4 / threads=3 / lookahead_threads=1 / sliced_threads=0 / nr=0 / decimate=0 / interlaced=0 / bluray_compat=0 / constrained_intra=0 / bframes=6 / b_pyramid=2 / b_adapt=2 / b_bias=0 / direct=3 / weightb=1 / open_gop=0 / weightp=2 / keyint=240 / keyint_min=24 / scenecut=40 / intra_refresh=0 / rc_lookahead=60 / rc=2pass / mbtree=0 / bitrate=6800 / ratetol=1.0 / qcomp=0.65 / qpmin=0 / qpmax=69 / qpstep=4 / cplxblur=20.0 / qblur=0.5 / vbv_maxrate=40000 / vbv_bufsize=30000 / nal_hrd=none / frame-packing=4 / ip_ratio=1.40 / pb_ratio=1.30 / aq=1:0.70
Язык : English
Default : Да
Forced : Нет

Аудио #1
Идентификатор : 2
Формат : AC-3
Формат/Информация : Audio Coding 3
Расширение режима : CM (complete main)
Параметр Endianness формата : Big
Идентификатор кодека : A_AC3
Продолжительность : 1 ч. 35 м.
Вид битрейта : Постоянный
Битрейт : 448 Кбит/сек
Каналы : 6 каналов
Расположение каналов : Front: L C R, Side: L R, LFE
Частота : 48,0 КГц
Битовая глубина : 16 бит
Метод сжатия : С потерями
Размер потока : 307 Мбайт (5%)
Заголовок : AC3 / 5.1 ch / 448 kbps / Русский дубляж, BD EUR
Язык : Russian
Default : Да
Forced : Нет

Аудио #2
Идентификатор : 3
Формат : AC-3
Формат/Информация : Audio Coding 3
Расширение режима : CM (complete main)
Параметр Endianness формата : Big
Идентификатор кодека : A_AC3
Продолжительность : 1 ч. 35 м.
Вид битрейта : Постоянный
Битрейт : 448 Кбит/сек
Каналы : 6 каналов
Расположение каналов : Front: L C R, Side: L R, LFE
Частота : 48,0 КГц
Битовая глубина : 16 бит
Метод сжатия : С потерями
Размер потока : 307 Мбайт (5%)
Заголовок : AC3 / 5.1 ch / 448 kbps / Украинский дубляж, BD EUR
Язык : Ukrainian
Default : Нет
Forced : Нет

Аудио #3
Идентификатор : 4
Формат : AC-3
Формат/Информация : Audio Coding 3
Расширение режима : CM (complete main)
Параметр Endianness формата : Big
Идентификатор кодека : A_AC3
Продолжительность : 1 ч. 35 м.
Вид битрейта : Постоянный
Битрейт : 640 Кбит/сек
Каналы : 6 каналов
Расположение каналов : Front: L C R, Side: L R, LFE
Частота : 48,0 КГц
Битовая глубина : 16 бит
Метод сжатия : С потерями
Размер потока : 438 Мбайт (8%)
Заголовок : AC3 / 5.1 ch / 640 kbps / Английский original, BD EUR
Язык : English
Default : Нет
Forced : Нет

Текст #1
Идентификатор : 5
Формат : UTF-8
Идентификатор кодека : S_TEXT/UTF8
Идентификатор кодека/Информация : UTF-8 Plain Text
Заголовок : Full, BD EUR
Язык : Russian
Default : Нет
Forced : Нет

Текст #2
Идентификатор : 6
Формат : UTF-8
Идентификатор кодека : S_TEXT/UTF8
Идентификатор кодека/Информация : UTF-8 Plain Text
Заголовок : Full, BD EUR
Язык : Ukrainian
Default : Нет
Forced : Нет

Текст #3
Идентификатор : 7
Формат : UTF-8
Идентификатор кодека : S_TEXT/UTF8
Идентификатор кодека/Информация : UTF-8 Plain Text
Заголовок : SDH, BD EUR
Язык : English
Default : Нет
Forced : Нет

Меню
00:00:00.000 : :Chapter 01
00:03:29.626 : :Chapter 02
00:06:39.857 : :Chapter 03
00:08:34.222 : :Chapter 04
00:10:13.863 : :Chapter 05
00:13:25.095 : :Chapter 06
00:17:15.784 : :Chapter 07
00:21:53.353 : :Chapter 08
00:25:42.707 : :Chapter 09
00:28:24.494 : :Chapter 10
00:30:17.899 : :Chapter 11
00:34:20.892 : :Chapter 12
00:38:20.339 : :Chapter 13
00:40:45.109 : :Chapter 14
00:44:40.219 : :Chapter 15
00:47:40.941 : :Chapter 16
00:49:29.925 : :Chapter 17
00:53:28.955 : :Chapter 18
00:57:00.750 : :Chapter 19
00:59:38.825 : :Chapter 20
01:02:05.972 : :Chapter 21
01:05:50.780 : :Chapter 22
01:08:07.166 : :Chapter 23
01:13:08.801 : :Chapter 24
01:16:26.790 : :Chapter 25
01:19:48.450 : :Chapter 26
01:23:26.126 : :Chapter 27
01:26:29.726 : :Chapter 28







   Похожие торренты   Торрент   Размер 
В этой теме нет новых непрочитанных сообщений. Турбо / Turbo (2013) BDRip 1080p от Killbrain and Scarabey | Лицензия

175 | 3

5.44 ГБ

В этой теме нет новых непрочитанных сообщений. Турбо / Turbo (2013) BDRip 1080p | 3D-Video | HOU | Лицензия

5 | 2

8.73 ГБ

В этой теме нет новых непрочитанных сообщений. Турбо / Turbo (2013) BDRip 1080p | 3D-Video | HSBS | Лицензия

95 | 4

8.71 ГБ

В этой теме нет новых непрочитанных сообщений. Турбо / Turbo (2013) Blu-Ray 1080p | Лицензия | 3D-Video

8 | 5

40.4 ГБ

В этой теме нет новых непрочитанных сообщений. Турбо / Turbo (2013) BDRip 1080p | 3D-Video | halfOU

75 | 16

5.86 ГБ

В этой теме нет новых непрочитанных сообщений. Турбо / Turbo (2013) BDRip-AVC от leonardo 59 & Scarabey | Лицензия

0 | 3

1.57 ГБ

В этой теме нет новых непрочитанных сообщений. Турбо / Turbo (2013) BDRip-AVC от leonardo 59 & Scarabey | Лицензия

0 | 3

1008.93 МБ




Вы не можете начинать темы
Вы не можете отвечать на сообщения
Вы не можете редактировать свои сообщения
Вы не можете удалять свои сообщения
Вы не можете добавлять вложения

Перейти:  
Для Мосгорсуда, Роскомнадзора и рекламодателей: mosgorsud-torrent[собачка]yandex.ru
 Вход
ppkBB3cker v.2 © 2008-2014 @ PPK
[ Time : 0.629s | 16 Queries | GZIP : Off ]

Торрент трекер RUTOR.IN, Не можете зайти на rutor.org? Какой новый адрес рутор? Какое зеркало рутор? Не работает rutor.org и зеркала? Тогда наш торрент специально для вас. Rutor.in неофициальное зеркало rutor. В случае если у Вас заблокирован rutor или вдруг Вы не можете на него зайти, то Вы без труда сможете скачать бесплатно и без рекламы последние новинки кино, игр, сериалов и прочего у нас, на Rutor.in. Не нужно использовать прокси, чтобы зайти на рутор, достаточно воспользоваться нашим ресурсом. Все новые фильмы, игры, сериалы, книги и музыка за 2013 и 2014 годы через торрент бесплатно. Скачивайте фильмы в хорошем качестве, игры для пк, xbox, playstation без регистрации. У нас вы найдете новые Зарубежные сериалы и Русские сериалы 2013, 2014, 2015 годов. Оставайтесь с нами, качайте любимые фильмы, игры, сериалы, книги и музыку.
cron