img image001 image001 image001 image001 image001 image001 image001 image001 image001 image001 image001 image001 image001 image001 image001

Planets Sun Sun Sun
Статистика раздачи
Автор: PriZraK | Размер: 1.75 ГБ | Добавлен: 15 фев 2014
Раздают: 61    Качают: 3
Скачать торрент
Скачать торрент
Описание торрента

СообщениеДобавлено: 15 фев 2014 




Информация о фильме
Название: Турбо
Оригинальное название: Turbo
Год выхода: 2013
Жанр: Мультфильм, детский, семейный, полнометражный
Режиссер: Дэвид Сорен
В ролях: Райан Рейнольдс, Пол Джаматти, Майкл Пенья, Луис Гузман, Билл Хейдер, Ричард Дженкинс, Кен Жонг, Мишель Родригес, Майя Рудольф, Бен Шварц

О фильме:
Ничто так не раздражает темпераментную, мечтающую о скорости улитку с говорящим именем Турбо как неспешная жизнь, медленные разговоры, заторможенные соседи. Пусть наш герой выглядит большим чудаком в этом вялом, неторопливом мире, пусть он идет вопреки закону природы о «рожденном ползать», но если в сердце горит «пламенный мотор», а душа верит в чудо, оно просто не имеет право не произойти!



Страна: США
Студия: DreamWorks Animation
Продолжительность: 01:35:40
Перевод: Дублированный

Файл
Кодек: h.264
Качество: BDRip-AVC
Видео: 1842 Кбит/с, 1024x436, 23.976 кадр/с

Звук:
• №1: Русский (АС3, 6 ch, 384 Кбит/с) Дублированный
• №2: Английский (АС3, 6 ch, 384 Кбит/с)

Субтитры:
• №1: Русские [форсированные]
• №2: Русские [полные, №1]
• №3: Русские [полные, №2]
• №4: Английские [полные, №1]
• №5: Английские [полные, №2]
• №6: Английские [SDH]

---------------------------------------------------------------------------
x264 [info]: frame I:1179 Avg QP:15.80 size: 64550
x264 [info]: frame P:41287 Avg QP:19.73 size: 17318
x264 [info]: frame B:95174 Avg QP:21.49 size: 5577
---------------------------------------------------------------------------

Полное имя : Turbo.2013.x264.BDRip.(AVC).0ptimus.mkv
Формат : Matroska
Версия формата : Version 4 / Version 2
Размер файла : 1,75 Гбайт
Продолжительность : 1 ч. 35 м.
Общий поток : 2613 Кбит/сек
Название фильма : Турбо | Turbo [2013] -=BDRip (AVC) by 0ptimus=-
Дата кодирования : UTC 2013-11-06 16:11:05
Программа кодирования : mkvmerge v6.1.0 ('Old Devil') built on Mar 2 2013 14:32:37
Библиотека кодирования : libebml v1.3.0 + libmatroska v1.4.0

Видео
Идентификатор : 1
Формат : AVC
Формат/Информация : Advanced Video Codec
Профиль формата : High@L4.1
Параметр CABAC формата : Да
Параметр ReFrames формата : 9 кадров
Идентификатор кодека : V_MPEG4/ISO/AVC
Продолжительность : 1 ч. 35 м.
Битрейт : 1842 Кбит/сек
Ширина : 1024 пикселя
Высота : 436 пикселей
Соотношение сторон : 2,35:1
Частота кадров : 23,976 кадра/сек
Цветовое пространство : YUV
Субдискретизация насыщенности : 4:2:0
Битовая глубина : 8 бит
Тип развёртки : Прогрессивная
Бит/(Пиксели*Кадры) : 0.172
Размер потока : 1,20 Гбайт (69%)
Заголовок : Rip by 0ptimus
Библиотека кодирования : x264 core 133 r2334 a3ac64b
Настройки программы : cabac=1 / ref=9 / deblock=1:-3:-3 / analyse=0x3:0x113 / me=umh / subme=11 / psy=1 / psy_rd=1.00:0.20 / mixed_ref=1 / me_range=48 / chroma_me=1 / trellis=2 / 8x8dct=1 / cqm=0 / deadzone=21,11 / fast_pskip=0 / chroma_qp_offset=-3 / threads=4 / lookahead_threads=1 / sliced_threads=0 / nr=0 / decimate=0 / interlaced=0 / bluray_compat=0 / constrained_intra=0 / bframes=12 / b_pyramid=2 / b_adapt=2 / b_bias=0 / direct=3 / weightb=1 / open_gop=0 / weightp=2 / keyint=240 / keyint_min=23 / scenecut=40 / intra_refresh=0 / rc_lookahead=40 / rc=2pass / mbtree=0 / bitrate=1842 / ratetol=1.0 / qcomp=0.60 / qpmin=0 / qpmax=69 / qpstep=4 / cplxblur=20.0 / qblur=0.5 / vbv_maxrate=50000 / vbv_bufsize=50000 / nal_hrd=none / ip_ratio=1.40 / pb_ratio=1.30 / aq=1:1.00
Язык : English

Аудио #1
Идентификатор : 2
Формат : AC-3
Формат/Информация : Audio Coding 3
Расширение режима : CM (complete main)
Идентификатор кодека : A_AC3
Продолжительность : 1 ч. 35 м.
Вид битрейта : Постоянный
Битрейт : 384 Кбит/сек
Каналы : 6 каналов
Расположение каналов : Front: L C R, Side: L R, LFE
Частота : 48,0 КГц
Битовая глубина : 16 бит
Метод сжатия : С потерями
Размер потока : 263 Мбайт (15%)
Заголовок : Дублированный AC3 5.1 @ 384 kbps
Язык : Russian

Аудио #2
Идентификатор : 3
Формат : AC-3
Формат/Информация : Audio Coding 3
Расширение режима : CM (complete main)
Идентификатор кодека : A_AC3
Продолжительность : 1 ч. 35 м.
Вид битрейта : Постоянный
Битрейт : 384 Кбит/сек
Каналы : 6 каналов
Расположение каналов : Front: L C R, Side: L R, LFE
Частота : 48,0 КГц
Битовая глубина : 16 бит
Метод сжатия : С потерями
Размер потока : 263 Мбайт (15%)
Заголовок : AC3 5.1 @ 384 kbps
Язык : English

Текст #1
Идентификатор : 4
Формат : UTF-8
Идентификатор кодека : S_TEXT/UTF8
Идентификатор кодека/Информация : UTF-8 Plain Text
Заголовок : Форсированные
Язык : Russian

Текст #2
Идентификатор : 5
Формат : UTF-8
Идентификатор кодека : S_TEXT/UTF8
Идентификатор кодека/Информация : UTF-8 Plain Text
Заголовок : №1
Язык : Russian

Текст #3
Идентификатор : 6
Формат : UTF-8
Идентификатор кодека : S_TEXT/UTF8
Идентификатор кодека/Информация : UTF-8 Plain Text
Заголовок : №2
Язык : Russian

Текст #4
Идентификатор : 7
Формат : UTF-8
Идентификатор кодека : S_TEXT/UTF8
Идентификатор кодека/Информация : UTF-8 Plain Text
Заголовок : #1
Язык : English

Текст #5
Идентификатор : 8
Формат : UTF-8
Идентификатор кодека : S_TEXT/UTF8
Идентификатор кодека/Информация : UTF-8 Plain Text
Заголовок : #2
Язык : English

Текст #6
Идентификатор : 9
Формат : UTF-8
Идентификатор кодека : S_TEXT/UTF8
Идентификатор кодека/Информация : UTF-8 Plain Text
Заголовок : SDH
Язык : English

Меню
00:00:00.000 : en:Chapter 1
00:03:29.626 : en:Chapter 2
00:06:39.858 : en:Chapter 3
00:08:34.222 : en:Chapter 4
00:10:13.863 : en:Chapter 5
00:13:25.096 : en:Chapter 6
00:17:15.785 : en:Chapter 7
00:21:53.354 : en:Chapter 8
00:25:42.708 : en:Chapter 9
00:28:24.494 : en:Chapter 10
00:30:17.899 : en:Chapter 11
00:34:20.892 : en:Chapter 12
00:38:20.340 : en:Chapter 13
00:40:45.109 : en:Chapter 14
00:44:40.219 : en:Chapter 15
00:47:40.941 : en:Chapter 16
00:49:29.925 : en:Chapter 17
00:53:28.956 : en:Chapter 18
00:57:00.751 : en:Chapter 19
00:59:38.825 : en:Chapter 20
01:02:05.972 : en:Chapter 21
01:05:50.780 : en:Chapter 22
01:08:07.166 : en:Chapter 23
01:13:08.801 : en:Chapter 24
01:16:26.791 : en:Chapter 25
01:19:48.450 : en:Chapter 26
01:23:26.126 : en:Chapter 27
01:26:29.726 : en:Chapter 28


Релиз от:



   Похожие торренты   Торрент   Размер 
В этой теме нет новых непрочитанных сообщений. Турбо / Turbo (2013) BDRip 1080p

38 | 11

4.37 ГБ

В этой теме нет новых непрочитанных сообщений. Турбо / Turbo (2013) BDRip от HQ-ViDEO

93 | 28

2.06 ГБ

В этой теме нет новых непрочитанных сообщений. Турбо / Turbo (2013) BDRip 720p

4 | 2

4.37 ГБ

В этой теме нет новых непрочитанных сообщений. Турбо / Turbo (2013) BDRip 1080p

3 | 3

7.76 ГБ

В этой теме нет новых непрочитанных сообщений. Турбо / Turbo (2013) BDRip от HQ-ViDEO

808 | 67

2.19 ГБ

В этой теме нет новых непрочитанных сообщений. Турбо / Turbo (2013) BDRip 720p от NNNB | 60 fps

147 | 20

5.15 ГБ

В этой теме нет новых непрочитанных сообщений. Турбо / Turbo (2013) BDRip от HQCLUB | Лицензия

2991 | 103

1.45 ГБ




Вы не можете начинать темы
Вы не можете отвечать на сообщения
Вы не можете редактировать свои сообщения
Вы не можете удалять свои сообщения
Вы не можете добавлять вложения

Перейти:  
Для Мосгорсуда, Роскомнадзора и рекламодателей: mosgorsud-torrent[собачка]yandex.ru
 Вход
ppkBB3cker v.2 © 2008-2014 @ PPK
[ Time : 0.023s | 14 Queries | GZIP : Off ]

Торрент трекер RUTOR.IN, Не можете зайти на rutor.org? Какой новый адрес рутор? Какое зеркало рутор? Не работает rutor.org и зеркала? Тогда наш торрент специально для вас. Rutor.in неофициальное зеркало rutor. В случае если у Вас заблокирован rutor или вдруг Вы не можете на него зайти, то Вы без труда сможете скачать бесплатно и без рекламы последние новинки кино, игр, сериалов и прочего у нас, на Rutor.in. Не нужно использовать прокси, чтобы зайти на рутор, достаточно воспользоваться нашим ресурсом. Все новые фильмы, игры, сериалы, книги и музыка за 2013 и 2014 годы через торрент бесплатно. Скачивайте фильмы в хорошем качестве, игры для пк, xbox, playstation без регистрации. У нас вы найдете новые Зарубежные сериалы и Русские сериалы 2013, 2014, 2015 годов. Оставайтесь с нами, качайте любимые фильмы, игры, сериалы, книги и музыку.