img image001 image001 image001 image001 image001 image001 image001 image001 image001 image001 image001 image001 image001 image001 image001

Planets Sun Sun Sun
Статистика раздачи
Автор: PriZraK | Размер: 1.45 ГБ | Добавлен: 15 фев 2014
Раздают: 26    Качают: 2
Скачать торрент
Скачать торрент
Описание торрента

СообщениеДобавлено: 15 фев 2014 




Страна: Испания, Италия, Франция / Art'Mell, Baleuko S.L., Film Investment Piedmont (FIP)...
Жанр: мультфильм, комедия, приключения
Год выпуска: 2013
Продолжительность: 01:17:13

Перевод: Профессиональный (дублированный)
Cубтитры: нет
Оригинальная аудиодорожка: нет

Режиссер: Франсис Нилсен / Francis Nielsen

Роли озвучивали: Кристина Хьюз, Питер Хадсон, Кэролин Фаллин, Брайан Вермейр, Бобби Джексон

Роли дублировали: Александр Лаенко, Александр Фильченко, Анна Балицкая, Анна Кикас, Василий Марков

Описание: Овечка Блэки — настоящая чума для всей фермы. Она — постоянный нарушитель спокойствия, энергии у нее на десятерых. Она — черная овечка и очень гордится этим, потому что не хочет быть такой, как все. Животные-соседи называют ее «очаровательным бедствием». Иногда они считают Блэки невыносимой, но в конце концов стараются помочь в осуществлении ее безумных фантазий. И сейчас она просто одержима идеей полета на Луну. А о чем мечтает пес Кануто, охраняющий овец? О том, чтобы стать самым великим псом-охранником овец всех времен. Для этого он учится и трудится как проклятый. Он милый и хороший, и все просто обожают его. Ему нравится тишина и покой. И как такой правильный пес мог полюбить такую вздорную овечку? Несмотря на то, что он и слышать ничего не хотел о ракетах, Кануто решил поддержать свою обожаемую Блэки.
В ходе подготовки полета в какие только приключения они не попадут и каких только героев не встретят: корову — оперную певицу, волка — модного дизайнера, пауков-нелегалов, работающих на швейной фабрике, парочку птиц — участников реалити-шоу, овечку Пинки размером с Годзиллу, и главное — компанию собак, у которых уже есть ракета, практически готовая к запуску…



Качество: DVDRip-AVC / DVD5 R5
Формат: MKV

Видео: 720x576@1024x576 (16:9), 25.000 fps, H264 ~2313 kbps avg, 0.223 bit/pixel
Аудио: Русский 48 kHz, AC3, 6 ch, 384.00 kbps Constant

Раздача от:
Общее
Полное имя : Bleki.letit.na.lunu.2013.D.DVDRip-AVC_[New-Team]_by_avproh.mkv
Формат : Matroska
Версия формата : Version 2
Размер файла : 1,45 Гбайт
Продолжительность : 1 ч. 17 м.
Общий поток : 2697 Кбит/сек
Дата кодирования : UTC 2013-11-05 18:46:41
Программа кодирования : mkvmerge v6.1.0 ('Old Devil') built on Mar 4 2013 09:10:42
Библиотека кодирования : libebml v1.3.0 + libmatroska v1.4.0

Видео
Идентификатор : 1
Формат : AVC
Формат/Информация : Advanced Video Codec
Профиль формата : High@L4.1
Параметр CABAC формата : Да
Параметр ReFrames формата : 6 кадров
Идентификатор кодека : V_MPEG4/ISO/AVC
Продолжительность : 1 ч. 17 м.
Битрейт : 2313 Кбит/сек
Ширина : 720 пикселей
Высота : 576 пикселей
Соотношение сторон : 16:9
Режим частоты кадров : Постоянный
Частота кадров : 25,000 кадров/сек
Стандарт вещания : PAL
Цветовое пространство : YUV
Субдискретизация насыщенности : 4:2:0
Битовая глубина : 8 бит
Тип развёртки : Прогрессивная
Бит/(Пиксели*Кадры) : 0.223
Размер потока : 1,22 Гбайт (84%)
Библиотека кодирования : x264 core 138 r2356 a1d3d17
Настройки программы : cabac=1 / ref=6 / deblock=1:-2:-1 / analyse=0x3:0x113 / me=umh / subme=10 / psy=1 / psy_rd=1.00:0.05 / mixed_ref=1 / me_range=32 / chroma_me=1 / trellis=2 / 8x8dct=1 / cqm=0 / deadzone=21,11 / fast_pskip=0 / chroma_qp_offset=-3 / threads=9 / lookahead_threads=1 / sliced_threads=0 / nr=0 / decimate=0 / interlaced=0 / bluray_compat=0 / constrained_intra=0 / bframes=8 / b_pyramid=2 / b_adapt=2 / b_bias=0 / direct=3 / weightb=1 / open_gop=0 / weightp=2 / keyint=250 / keyint_min=25 / scenecut=40 / intra_refresh=0 / rc=2pass / mbtree=0 / bitrate=2313 / ratetol=1.0 / qcomp=0.60 / qpmin=0 / qpmax=69 / qpstep=4 / cplxblur=20.0 / qblur=0.5 / ip_ratio=1.40 / pb_ratio=1.30 / aq=1:1.00
Default : Да
Forced : Нет

Аудио
Идентификатор : 2
Формат : AC-3
Формат/Информация : Audio Coding 3
Расширение режима : CM (complete main)
Параметр Endianness формата : Big
Идентификатор кодека : A_AC3
Продолжительность : 1 ч. 17 м.
Вид битрейта : Постоянный
Битрейт : 384 Кбит/сек
Каналы : 6 каналов
Расположение каналов : Front: L C R, Side: L R, LFE
Частота : 48,0 КГц
Битовая глубина : 16 бит
Метод сжатия : С потерями
Размер потока : 212 Мбайт (14%)
Default : Да
Forced : Нет





   Похожие торренты   Торрент   Размер 
В этой теме нет новых непрочитанных сообщений. Блэки летит на Луну / Black to the Moon 3D (2013) DVDRip от New-Team | D | лицензия

6 | 2

744.8 МБ

В этой теме нет новых непрочитанных сообщений. Блэки летит на Луну / Black to the Moon 3D (2013) DVDRip от New-Team | D | лицензия

58 | 3

1.46 ГБ

В этой теме нет новых непрочитанных сообщений. Блэки летит на Луну / Black to the Moon 3D (2013) DVD5 R5 от New-Team | D | лицензия

7 | 4

4.36 ГБ

В этой теме нет новых непрочитанных сообщений. Блэки летит на Луну / Black to the Moon 2D, 3D (2013) Blu-Ray 1080p от BLUEBIRD | D | Лицензия

31 | 27

16.62 ГБ

В этой теме нет новых непрочитанных сообщений. Блэки летит на Луну / Black to the Moon 3D (2013) BDRip-AVC от MediaClub | Лицензия

219 | 41

1.36 ГБ

В этой теме нет новых непрочитанных сообщений. Блэки летит на Луну / Black to the Moon 3D (2013) BDRemux 1080p от ExKinoRay | D | Лицензия

3 | 2

11.29 ГБ

В этой теме нет новых непрочитанных сообщений. Блэки летит на Луну / Black to the Moon 3D (2013) BDRemux 1080p от ExKinoRay | D | Лицензия

35 | 23

10.93 ГБ




Вы не можете начинать темы
Вы не можете отвечать на сообщения
Вы не можете редактировать свои сообщения
Вы не можете удалять свои сообщения
Вы не можете добавлять вложения

Перейти:  
Для Мосгорсуда, Роскомнадзора и рекламодателей: mosgorsud-torrent[собачка]yandex.ru
 Вход
ppkBB3cker v.2 © 2008-2014 @ PPK
[ Time : 2.486s | 14 Queries | GZIP : Off ]

Торрент трекер RUTOR.IN, Не можете зайти на rutor.org? Какой новый адрес рутор? Какое зеркало рутор? Не работает rutor.org и зеркала? Тогда наш торрент специально для вас. Rutor.in неофициальное зеркало rutor. В случае если у Вас заблокирован rutor или вдруг Вы не можете на него зайти, то Вы без труда сможете скачать бесплатно и без рекламы последние новинки кино, игр, сериалов и прочего у нас, на Rutor.in. Не нужно использовать прокси, чтобы зайти на рутор, достаточно воспользоваться нашим ресурсом. Все новые фильмы, игры, сериалы, книги и музыка за 2013 и 2014 годы через торрент бесплатно. Скачивайте фильмы в хорошем качестве, игры для пк, xbox, playstation без регистрации. У нас вы найдете новые Зарубежные сериалы и Русские сериалы 2013, 2014, 2015 годов. Оставайтесь с нами, качайте любимые фильмы, игры, сериалы, книги и музыку.