img image001 image001 image001 image001 image001 image001 image001 image001 image001 image001 image001 image001 image001 image001 image001

Planets Sun Sun Sun
Статистика раздачи
Автор: PriZraK | Размер: 17.66 ГБ | Добавлен: 15 фев 2014
Раздают: 96    Качают: 8
Скачать торрент
Скачать торрент
Описание торрента

СообщениеДобавлено: 15 фев 2014 




Информация о фильме
Название: В Поисках Немо
Оригинальное название: Finding Nemo
Год выхода: 2003
Жанр: Мультфильм, комедия, приключения, семейный
Режиссер: Эндрю Стэнтон, Ли Анкрич
В ролях: Альберт Брукс, Эллен ДеДженерес, Александр Гулд, Уиллем Дефо, Эллисон Дженни, Джо Рэнфт, Джеффри Раш, Элизабет Перкинс, Эрик Бана, Эндрю Стэнтон

О фильме:
Среди прекрасных тропических морских стихий, в районе Большого барьерного рифа в уединении живет рыба-клоун по имени Марлин. Он растит своего единственного сыночка Немо. Океан и существующие в нем опасности очень страшат Марлина, и он как может ограждает сына от них, но молодой Немо, страдающий излишним любопытством, очень хочет разузнать побольше о таинственном рифе, рядом с которым они живут.

Когда Немо по иронии судьбы оказывается вдалеке от дома, да и еще сталкивается с угрозой стать обедом рыбы-танка, Марлин отправляется на поиски сына. Но Марлин, конечно же, понимает, что героический спасатель из него не получится и просит о помощи в поисках, Дори, королевскую синюю рыбу, которая хоть и страдает от того, что почти ничего не помнит, но добрее ее не отыскать во всем безбрежном океане!

Итак, наши герои отправляются в путешествие, в котором их подкарауливают многочисленные трудности и опасности…
Страна: США
Студия: Pixar Animation Studios, Walt Disney Pictures
Продолжительность: 01:40:54
Перевод: Дубляж [лицензия]

Файл
Кодек: H.264/High@L4.1/4 frames
Качество: BDRemux 1080p
Видео: MPEG-4 AVC, 24506 Кбит/с, 1920x1080, 23.976 кадр/с
Звук: Русский (AC3, 6 ch, 640 Кбит/с)
General
Unique ID : 222651971326587842152464241295924310266 (0xA78135BA662215CC80AF64B7B642B0FA)
Complete name : Finding Nemo 2003 BDRemux 1920х1040 23.9-25.1 0.48.mkv
Format : Matroska
Format version : Version 2
File size : 17.7 GiB
Duration : 1h 40mn
Overall bit rate mode : Variable
Overall bit rate : 25.1 Mbps
Movie name : Finding Nemo
Encoded date : UTC 2013-07-06 01:01:29
Writing application : mkvmerge v5.4.0 ('Piper') built on Mar 10 2012 13:34:39
Writing library : libebml v1.2.3 + libmatroska v1.3.0

Video
ID : 1
Format : AVC
Format/Info : Advanced Video Codec
Format profile : High@L4.1
Format settings, CABAC : Yes
Format settings, ReFrames : 4 frames
Muxing mode : Container profile=Unknown@0.0
Codec ID : V_MPEG4/ISO/AVC
Duration : 1h 40mn
Bit rate mode : Variable
Bit rate : 23.9 Mbps
Maximum bit rate : 31.5 Mbps
Width : 1 920 pixels
Height : 1 080 pixels
Display aspect ratio : 16:9
Frame rate mode : Constant
Frame rate : 23.976 fps
Color space : YUV
Chroma subsampling : 4:2:0
Bit depth : 8 bits
Scan type : Progressive
Bits/(Pixel*Frame) : 0.481
Stream size : 16.9 GiB (95%)
Title : Finding Nemo
Default : Yes
Forced : No

Audio
ID : 2
Format : AC-3
Format/Info : Audio Coding 3
Mode extension : CM (complete main)
Format settings, Endianness : Big
Codec ID : A_AC3
Duration : 1h 40mn
Bit rate mode : Constant
Bit rate : 640 Kbps
Channel(s) : 6 channels
Channel positions : Front: L C R, Side: L R, LFE
Sampling rate : 48.0 KHz
Bit depth : 16 bits
Compression mode : Lossy
Stream size : 462 MiB (3%)
Title : Дубляж | BD CEE
Language : Russian
Default : Yes
Forced : No

Menu
00:00:00.000 : en:00:00:00.000
00:04:18.717 : en:00:04:18.717
00:05:35.669 : en:00:05:35.669
00:11:17.802 : en:00:11:17.802
00:12:16.277 : en:00:12:16.277
00:14:08.848 : en:00:14:08.848
00:16:29.280 : en:00:16:29.280
00:18:50.338 : en:00:18:50.338
00:25:31.989 : en:00:25:31.989
00:30:54.227 : en:00:30:54.227
00:33:01.646 : en:00:33:01.646
00:36:11.836 : en:00:36:11.836
00:40:19.167 : en:00:40:19.167
00:44:58.279 : en:00:44:58.279
00:48:12.389 : en:00:48:12.389
00:51:28.419 : en:00:51:28.419
00:56:07.030 : en:00:56:07.030
01:00:55.902 : en:01:00:55.902
01:05:20.667 : en:01:05:20.667
01:07:02.101 : en:01:07:02.101
01:08:30.148 : en:01:08:30.148
01:13:19.437 : en:01:13:19.437
01:14:15.201 : en:01:14:15.201
01:16:00.097 : en:01:16:00.097
01:18:41.300 : en:01:18:41.300
01:21:57.621 : en:01:21:57.621
01:24:29.481 : en:01:24:29.481
01:26:54.334 : en:01:26:54.334
01:29:26.611 : en:01:29:26.611
01:30:51.363 : en:01:30:51.363
01:32:42.974 : en:01:32:42.974
01:33:24.265 : en:01:33:24.265




   Похожие торренты   Торрент   Размер 
В этой теме нет новых непрочитанных сообщений. В поисках Немо / Finding Nemo (2003) BDRip 1080p

534 | 29

5.77 ГБ

В этой теме нет новых непрочитанных сообщений. В поисках Немо / Finding Nemo (2003) HDTVRip 1080p от FREEISLAND

66 | 10

4.37 ГБ

В этой теме нет новых непрочитанных сообщений. В поисках Немо / Finding Nemo (2003) BDRip 1080p | 3D-Video

762 | 13

10.31 ГБ

В этой теме нет новых непрочитанных сообщений. В поисках Немо / Finding Nemo (2003) DVDRip

41 | 7

670.58 МБ

В этой теме нет новых непрочитанных сообщений. В поисках Немо / Finding Nemo (2003) BDRip

2223 | 103

1.45 ГБ

В этой теме нет новых непрочитанных сообщений. В поисках Немо / Finding Nemo (2003) HDTVRip

517 | 18

1.45 ГБ

В этой теме нет новых непрочитанных сообщений. В поисках Немо / Finding Nemo (2003) HDRip от Scarabey | D

355 | 28

1.45 ГБ




Вы не можете начинать темы
Вы не можете отвечать на сообщения
Вы не можете редактировать свои сообщения
Вы не можете удалять свои сообщения
Вы не можете добавлять вложения

Перейти:  
Для Мосгорсуда, Роскомнадзора и рекламодателей: mosgorsud-torrent[собачка]yandex.ru
 Вход
ppkBB3cker v.2 © 2008-2014 @ PPK
[ Time : 0.544s | 14 Queries | GZIP : Off ]

Торрент трекер RUTOR.IN, Не можете зайти на rutor.org? Какой новый адрес рутор? Какое зеркало рутор? Не работает rutor.org и зеркала? Тогда наш торрент специально для вас. Rutor.in неофициальное зеркало rutor. В случае если у Вас заблокирован rutor или вдруг Вы не можете на него зайти, то Вы без труда сможете скачать бесплатно и без рекламы последние новинки кино, игр, сериалов и прочего у нас, на Rutor.in. Не нужно использовать прокси, чтобы зайти на рутор, достаточно воспользоваться нашим ресурсом. Все новые фильмы, игры, сериалы, книги и музыка за 2013 и 2014 годы через торрент бесплатно. Скачивайте фильмы в хорошем качестве, игры для пк, xbox, playstation без регистрации. У нас вы найдете новые Зарубежные сериалы и Русские сериалы 2013, 2014, 2015 годов. Оставайтесь с нами, качайте любимые фильмы, игры, сериалы, книги и музыку.