img image001 image001 image001 image001 image001 image001 image001 image001 image001 image001 image001 image001 image001 image001 image001

Planets Sun Sun Sun
Статистика раздачи
Автор: PriZraK | Размер: 4.37 ГБ | Добавлен: 15 фев 2014
Раздают: 141    Качают: 11
Скачать торрент
Скачать торрент
Описание торрента

СообщениеДобавлено: 15 фев 2014 


Университет монстров / Monsters University
(2013)
BDRip 1080p [Hi10P] от FREEISLAND


«Самый страшный универ в мире»




Год выпуска: 2013
Страна: США
Жанр: мультфильм, фэнтези, комедия, приключения, семейный
Продолжительность: 1 ч. 44 м. 17 с.
Перевод: Дублированный

Режиссер: Дэн Скэнлон
Продюссер: Кори Рэй, Пит Доктер, Николь Паради Гриндл
Сценарий: Дэн Скэнлон, Дэниэл Джерсон, Роберт Л. Бейрд
Композитор: Рэнди Ньюман
Студия: Pixar Animation Studios, Walt Disney Pictures

Релиз на Blu-Ray: 5 ноября 2013, «Уолт Дисней Компани СНГ»
Премьера в мире: 8 июня 2013

- Нет возрастных ограничений


Роли дублировали:
Сергей Паршин - Sullivan, Олег Куликович - Mike, Евгений Дятлов - Randy, Людмила Максакова - Dean Hardscrabble, Виталий Гогунский - Squishy, Алексей Климушкин - Don, Станислав Ярушин - Terri , Арарат Кещян - Terry, Андрей Гайдулян - Art, Анна Ардова - Ms. Squibbles, Наталья Данилова - Roz

Описание:
Майк и Салли — самые опытные пугатели в Монстрополисе, но так было далеко не всегда. Когда они встретились впервые, эти монстры терпеть друг друга не могли. «Университет Монстров» — история о том, как наши старые знакомые прошли путь от взаимной неприязни к крепкой дружбе.

Внимание!

Рип в High 10 Profile, в настоящее время не поддерживается большинством аппаратных проигрывателей.
Для корректного воспроизведения может потребоваться обновление ПО.
Владельцам несовместимого железа просьба не беспокоить, на трекере есть альтернативные релизы.


Качество: BDRip 1080p Hi10P (SSIM: 0.9905311)
Исходник: Blu-Ray Disc
Контейнер: MKV
Видео кодек: x264 High10@L5.1
Аудио кодек: AC-3
Видео: AVC at 5360 Кбит/сек, 1920 x 1080 (1.778) at 23.976 fps
Аудио: AC-3 at 640 Кбит/сек, 6 каналов, 48,0 КГц
Субтитры 1: русские полные (SRT/UTF-8)
Субтитры 2: русские, комментарии создателей (SRT/UTF-8)
Навигация по главам: есть


Общее
Уникальный идентификатор : 174852590872644128483304890052157391063 (0x838B6251DB45B4BE8CE0890DFC1040D7)
Полное имя : Университет монстров [Monsters University] (2013) BDRip-Hi10P 1080p by_F.HD.mkv
Формат : Matroska
Версия формата : Version 4 / Version 2
Размер файла : 4,37 Гбайт
Продолжительность : 1 ч. 44 м.
Общий поток : 6000 Кбит/сек
Название фильма : релиз от FREEISLAND.ORG
Дата кодирования : UTC 2013-11-06 15:50:17
Программа кодирования : mkvmerge v6.5.0 ('Isn't she lovely') built on Oct 20 2013 12:50:05
Библиотека кодирования : libebml v1.3.0 + libmatroska v1.4.1

Видео
Идентификатор : 1
Формат : AVC
Формат/Информация : Advanced Video Codec
Профиль формата : High 10@L5.1
Параметр CABAC формата : Да
Параметр ReFrames формата : 16 кадров
Идентификатор кодека : V_MPEG4/ISO/AVC
Продолжительность : 1 ч. 44 м.
Битрейт : 5360 Кбит/сек
Ширина : 1920 пикселей
Высота : 1080 пикселей
Соотношение сторон : 16:9
Режим частоты кадров : Постоянный
Частота кадров : 23,976 кадра/сек
Цветовое пространство : YUV
Субдискретизация насыщенности : 4:2:0
Битовая глубина : 10 бит
Тип развёртки : Прогрессивная
Бит/(Пиксели*Кадры) : 0.108
Размер потока : 3,82 Гбайт (87%)
Библиотека кодирования : x264 core 138 r2359+704+48 3f879a0 tMod [10-bit@all X86_64]
Настройки программы : cabac=1 / ref=16 / deblock=1:1:1 / analyse=0x3:0x133 / me=umh / subme=11 / psy=1 / fade_compensate=0.00 / psy_rd=1.00:0.06 / mixed_ref=1 / me_range=64 / chroma_me=1 / trellis=2 / 8x8dct=1 / cqm=0 / deadzone=21,11 / fast_pskip=0 / chroma_qp_offset=-3 / threads=12 / lookahead_threads=2 / sliced_threads=0 / nr=0 / decimate=1 / interlaced=0 / bluray_compat=0 / constrained_intra=0 / fgo=0 / bframes=9 / b_pyramid=2 / b_adapt=2 / b_bias=0 / direct=3 / weightb=1 / open_gop=0 / weightp=2 / keyint=278 / keyint_min=21 / scenecut=40 / intra_refresh=0 / rc_lookahead=0 / rc=2pass / mbtree=0 / bitrate=5360 / ratetol=1.0 / qcomp=1.00 / qpmin=0:0:0 / qpmax=48:48:48 / qpstep=4 / cplxblur=20.0 / qblur=0.5 / vbv_maxrate=240000 / vbv_bufsize=240000 / nal_hrd=none / ip_ratio=1.40 / pb_ratio=1.30 / aq=4:0.73 / aq-sensitivity=15.00 / aq-factor=1.00:1.00:1.00 / aq2=1:1.10 / aq2-sensitivity=8.00 / aq2-factor=1.00:1.00:1.00 / aq3=0
Язык : Russian
Default : Да
Forced : Нет
Основные цвета : BT.709
Характеристики трансфера : BT.709
Коэффициенты матрицы : BT.709

Аудио
Идентификатор : 2
Формат : AC-3
Формат/Информация : Audio Coding 3
Расширение режима : CM (complete main)
Параметр Endianness формата : Big
Идентификатор кодека : A_AC3
Продолжительность : 1 ч. 44 м.
Вид битрейта : Постоянный
Битрейт : 640 Кбит/сек
Каналы : 6 каналов
Расположение каналов : Front: L C R, Side: L R, LFE
Частота : 48,0 КГц
Битовая глубина : 16 бит
Метод сжатия : С потерями
Размер потока : 477 Мбайт (11%)
Заголовок : Dub
Язык : Russian
Default : Да
Forced : Нет

Текст #1
Идентификатор : 3
Формат : UTF-8
Идентификатор кодека : S_TEXT/UTF8
Идентификатор кодека/Информация : UTF-8 Plain Text
Заголовок : Full
Язык : Russian
Default : Нет
Forced : Нет

Текст #2
Идентификатор : 4
Формат : UTF-8
Идентификатор кодека : S_TEXT/UTF8
Идентификатор кодека/Информация : UTF-8 Plain Text
Заголовок : комментарии создателей
Язык : Russian
Default : Нет
Forced : Нет

Меню
00:00:00.000 : :01. Field Trip
00:06:26.719 : :02. Titles
00:07:06.884 : :03. Freshman Orientation
00:10:54.111 : :04. Roommates
00:12:19.947 : :05. First Day
00:16:09.968 : :06. Not My Room
00:18:15.635 : :07. Pig Chase
00:19:37.592 : :08. A Challenge
00:21:06.848 : :09. 1st Semester Show Down
00:23:43.630 : :10. Kicked Out
00:29:22.719 : :11. Dream Over
00:30:39.462 : :12. Mike's Plan
00:33:38.099 : :13. OK Brothers
00:36:30.980 : :14. Initiation
00:38:19.421 : :15. First Morning
00:39:22.568 : :16. Toxicity Challenge
00:45:13.335 : :17. My Way
00:47:14.831 : :18. Keep Quiet
00:51:08.148 : :19. Party Like Scarers
00:55:21.192 : :20. Cute-me Kappa
00:57:30.321 : :21. The Big Leagues
01:01:42.239 : :22. Teamwork
01:04:37.289 : :23. A Seed Of Doubt
01:07:33.006 : :24. Final Competition
01:14:11.321 : :25. A Betrayal
01:18:07.849 : :26. Door Breach
01:19:25.718 : :27. Searching For Mike
01:23:53.402 : :28. Shut Down
01:24:38.656 : :29. The Big Scare
01:28:00.232 : :30. Separate Ways
01:32:51.356 : :31. Epilogue
01:34:24.032 : :32. End Credits











Релиз от:

Если у вас возникают вопросы типа:
-почему у меня есть звук и отсутствует изображение?
-почему у меня рассыпается картинка?
-почему у меня картинка фонит синевой или зеленью?
-зачем и кому всё это нужно?
и тому подобные, читаем FAQ.
ссылка на FAQ запрещена правилами.

По этому, гуглим на тему спойлера (Что такое 10-ти битное видео (High 10 Profile - Hi10P), и как его смотреть?).



   Похожие торренты   Торрент   Размер 
В этой теме нет новых непрочитанных сообщений. Корпорация монстров 2 / Университет монстров / Monsters University (2013) BDRip 1080p | Трейлер

335 | 9

43.7 МБ

В этой теме нет новых непрочитанных сообщений. Корпорация монстров / Monsters, Inc. / Университет монстров / Monsters University (2001-2013) BDRip 720p от Leonardo and Scarabey | iPad

667 | 189

3.31 ГБ

В этой теме нет новых непрочитанных сообщений. Университет монстров / Monsters University (2013) BDRip 1080p

293 | 19

5.77 ГБ

В этой теме нет новых непрочитанных сообщений. Университет монстров / Monsters University (2013) BDRip 1080p | D | Лицензия

174 | 15

11.85 ГБ

В этой теме нет новых непрочитанных сообщений. Университет монстров / Monsters University (2013) BDRip 1080p | D | 3D-Video | HOU | Лицензия

98 | 16

6.95 ГБ

В этой теме нет новых непрочитанных сообщений. Университет монстров / Monsters University (2013) BDRip 1080p | 3D-Video | halfOU

391 | 7

6.96 ГБ

В этой теме нет новых непрочитанных сообщений. Университет монстров / Monsters University (2013) BDRip 1080p от DHT-Movies | Лицензия

46 | 16

5.19 ГБ




Вы не можете начинать темы
Вы не можете отвечать на сообщения
Вы не можете редактировать свои сообщения
Вы не можете удалять свои сообщения
Вы не можете добавлять вложения

Перейти:  
Для Мосгорсуда, Роскомнадзора и рекламодателей: mosgorsud-torrent[собачка]yandex.ru
 Вход
ppkBB3cker v.2 © 2008-2014 @ PPK
[ Time : 0.030s | 14 Queries | GZIP : Off ]
CGP output time : 0.039s | 5 Queries | GZIP : Off

Торрент трекер RUTOR.IN, Не можете зайти на rutor.org? Какой новый адрес рутор? Какое зеркало рутор? Не работает rutor.org и зеркала? Тогда наш торрент специально для вас. Rutor.in неофициальное зеркало rutor. В случае если у Вас заблокирован rutor или вдруг Вы не можете на него зайти, то Вы без труда сможете скачать бесплатно и без рекламы последние новинки кино, игр, сериалов и прочего у нас, на Rutor.in. Не нужно использовать прокси, чтобы зайти на рутор, достаточно воспользоваться нашим ресурсом. Все новые фильмы, игры, сериалы, книги и музыка за 2013 и 2014 годы через торрент бесплатно. Скачивайте фильмы в хорошем качестве, игры для пк, xbox, playstation без регистрации. У нас вы найдете новые Зарубежные сериалы и Русские сериалы 2013, 2014, 2015 годов. Оставайтесь с нами, качайте любимые фильмы, игры, сериалы, книги и музыку.