img image001 image001 image001 image001 image001 image001 image001 image001 image001 image001 image001 image001 image001 image001 image001

Planets Sun Sun Sun
Статистика раздачи
Автор: PriZraK | Размер: 2.18 ГБ | Добавлен: 15 фев 2014
Раздают: 29    Качают: 4
Скачать торрент
Скачать торрент
Описание торрента

СообщениеДобавлено: 15 фев 2014 




Информация о фильме
Название: Победитель
Оригинальное название: Everyone's Hero
Год выхода: 2006
Жанр: мультфильм, комедия, приключения, семейный, спорт
Режиссер: Колин Брэйди, Кристофер Рив, Дэн Ст. Пьер
В ролях: Ричи Аллен, Джейк Т. Остин, Чериз Буф, Джесси Бронштейн, Ральф Коппола, Брайан Деннехи, Вупи Голдберг, Джейсон Харрис, Эд Хелмс, Рэй Яничелли

Роли дублировали: Юлия Рутберг, Евгений Стычкин, Дмитрий Череватенко, Роман Трахтенберг

Описание: История, рассказывающая о веселых приключениях озорного мальчишки Янки Ирвинга и его забавных друзей, остроумного мяча-шутника Скрю и нахальной биты — примадонны Дорогуши.

Вместе с ними он следует за своей мечтой из Нью-Йорка в великолепный
Чикаго, попадая в смешные и каверзные ситуации. А сила дружбы и оптимизм
помогают ему привести к победе свою любимую спортивную команду.



Страна: Канада, США
Продолжительность: 01:23:44
Перевод: Профессиональный (Дублированный) (Лицензия)

Файл
Формат: MKV
Качество: DVDRip-AVC (Источник: DVD-9 R5)
Видео: 1024x576 (16:9), 25.000 fps, 3352 kbps
Аудио: AC-3, 6 ch, 384 kbps (Дублированный Лицензия)
Субтитры: нет
Скачать: Семпл


General
Unique ID : 193645772493259598562337955701051557876 (0x91AED1B6199EB640ABA8B6E6954707F4)
Complete name : Everyone.s.Hero.2006.DVDRip.AVC.mkv
Format : Matroska
Format version : Version 2
File size : 2.18 GiB
Duration : 1h 23mn
Overall bit rate : 3 733 Kbps
Encoded date : UTC 2013-11-10 23:20:24
Writing application : mkvmerge v5.6.0 ('Kenya Kane') built on May 27 2012 16:44:04
Writing library : libebml v1.2.3 + libmatroska v1.3.0

Video
ID : 1
Format : AVC
Format/Info : Advanced Video Codec
Format profile : High@L4.1
Format settings, CABAC : Yes
Format settings, ReFrames : 8 frames
Codec ID : V_MPEG4/ISO/AVC
Duration : 1h 23mn
Bit rate : 3 352 Kbps
Width : 1 024 pixels
Height : 576 pixels
Display aspect ratio : 16:9
Frame rate mode : Constant
Frame rate : 25.000 fps
Color space : YUV
Chroma subsampling : 4:2:0
Bit depth : 8 bits
Scan type : Progressive
Bits/(Pixel*Frame) : 0.227
Stream size : 1.92 GiB (88%)
Title : Победитель (2006 Год) (DVDRip-AVC)
Writing library : x264 core 130 r2273 b3065e6
Encoding settings : cabac=1 / ref=8 / deblock=1:-2:-2 / analyse=0x3:0x113 / me=tesa / subme=11 / psy=1 / psy_rd=1.00:0.00 / mixed_ref=1 / me_range=32 / chroma_me=1 / trellis=2 / 8x8dct=1 / cqm=0 / deadzone=21,11 / fast_pskip=1 / chroma_qp_offset=-2 / threads=6 / lookahead_threads=1 / sliced_threads=0 / nr=0 / decimate=1 / interlaced=0 / bluray_compat=0 / constrained_intra=0 / bframes=5 / b_pyramid=2 / b_adapt=2 / b_bias=0 / direct=3 / weightb=1 / open_gop=0 / weightp=2 / keyint=250 / keyint_min=25 / scenecut=40 / intra_refresh=0 / rc=2pass / mbtree=0 / bitrate=3352 / ratetol=1.0 / qcomp=0.60 / qpmin=0 / qpmax=69 / qpstep=4 / cplxblur=20.0 / qblur=0.5 / ip_ratio=1.40 / pb_ratio=1.30 / aq=1:1.00
Language : English
Default : Yes
Forced : No
Color primaries : BT.601 PAL
Transfer characteristics : BT.709
Matrix coefficients : BT.601

Audio
ID : 2
Format : AC-3
Format/Info : Audio Coding 3
Mode extension : CM (complete main)
Format settings, Endianness : Big
Codec ID : A_AC3
Duration : 1h 23mn
Bit rate mode : Constant
Bit rate : 384 Kbps
Channel(s) : 6 channels
Channel positions : Front: L C R, Side: L R, LFE
Sampling rate : 48.0 KHz
Bit depth : 16 bits
Compression mode : Lossy
Stream size : 230 MiB (10%)
Title : Дублированный 5.1 (Лицензия)
Language : Russian
Default : Yes
Forced : No



   Похожие торренты   Торрент   Размер 
В этой теме нет новых непрочитанных сообщений. Победитель / Everyone's Hero (2006) DVDRip

6 | 3

747.2 МБ

В этой теме нет новых непрочитанных сообщений. Лох - победитель воды (1991) DVDRip

8 | 2

1.37 ГБ

В этой теме нет новых непрочитанных сообщений. Победитель (2009) DVDRip - КинозалSAT

50 | 8

1.37 ГБ

В этой теме нет новых непрочитанных сообщений. Лох - Победитель Воды (1991) DVDRip-AVC

90 | 15

1.51 ГБ

В этой теме нет новых непрочитанных сообщений. Победитель / The Winner (1996) DVDRip от FilmRus | P

74 | 18

1.45 ГБ

В этой теме нет новых непрочитанных сообщений. Лох - победитель воды (1991) DVDRip от Alekxandr48

16 | 4

701.11 МБ

В этой теме нет новых непрочитанных сообщений. Десятидюймовый герой / Ten Inch Hero (2006) WEB-DLRip

88 | 19

2.18 ГБ




Вы не можете начинать темы
Вы не можете отвечать на сообщения
Вы не можете редактировать свои сообщения
Вы не можете удалять свои сообщения
Вы не можете добавлять вложения

Перейти:  
Для Мосгорсуда, Роскомнадзора и рекламодателей: mosgorsud-torrent[собачка]yandex.ru
 Вход
ppkBB3cker v.2 © 2008-2014 @ PPK
[ Time : 0.218s | 15 Queries | GZIP : Off ]

Торрент трекер RUTOR.IN, Не можете зайти на rutor.org? Какой новый адрес рутор? Какое зеркало рутор? Не работает rutor.org и зеркала? Тогда наш торрент специально для вас. Rutor.in неофициальное зеркало rutor. В случае если у Вас заблокирован rutor или вдруг Вы не можете на него зайти, то Вы без труда сможете скачать бесплатно и без рекламы последние новинки кино, игр, сериалов и прочего у нас, на Rutor.in. Не нужно использовать прокси, чтобы зайти на рутор, достаточно воспользоваться нашим ресурсом. Все новые фильмы, игры, сериалы, книги и музыка за 2013 и 2014 годы через торрент бесплатно. Скачивайте фильмы в хорошем качестве, игры для пк, xbox, playstation без регистрации. У нас вы найдете новые Зарубежные сериалы и Русские сериалы 2013, 2014, 2015 годов. Оставайтесь с нами, качайте любимые фильмы, игры, сериалы, книги и музыку.