img image001 image001 image001 image001 image001 image001 image001 image001 image001 image001 image001 image001 image001 image001 image001

Planets Sun Sun Sun
Статистика раздачи
Автор: PriZraK | Размер: 21.23 ГБ | Добавлен: 15 фев 2014
Раздают: 4    Качают: 2
Скачать торрент
Скачать торрент
Описание торрента

СообщениеДобавлено: 15 фев 2014 



Информация о фильме

Название: Смурфики 2
Оригинальное название: The Smurfs 2
Год выпуска: 2013
Жанр: Мультфильм, фэнтези, комедия, семейный
Выпущено: США, Kerner Entertainment Company, Columbia Pictures, Sony Pictures Animation
Режиссер: Раджа Госнелл
В ролях: Хэнк Азария, Нил Патрик Харрис, Брендан Глисон, Джейма Мейс, Джонатан Уинтерс, Кэти Перри, Кристина Риччи, Дж.Б. Смув, Джордж Лопес, Антон Ельчин
О фильме: Смурфики объединятся с их человеческими друзьями, чтобы спасти Смурфетту, которая была похищена Гаргамелем, после того как узнала секретное заклинание, которое может превратить новое творение злого мага в Смурф. Смурфиков и их новых друзей ожидает захватывающее приключение и новая встреча со злодейским Гаргамелем, у которого свои планы на синих гномиков

Файл

Качество: Blu-Ray Remux (1080p)
Видео: MPEG-4 AVC, 23468 Кбит/с, 1920x1080, 23.976 кадр/с
Аудио: Русский, латышский, литовский, эстонский, украинский (AC3, 6 ch, 640 Кбит/с), английский (DTS-HD MA, 6 ch, 2266 Кбит/c)
Размер: 21.23 ГБ
Продолжительность: 01:44:54
Перевод: Дублированный
Субтитры: Русские, латышские, литовские, эстонские, украинские, английские
Общее
Уникальный идентификатор : 173345877998039786759048780390590653502 (0x826933A3BDE8F41693B8E517C4E5243E)
Полное имя : C:ЗагрузкиThe.Smurfs.2.2013.BDRemux.(1080p.).ExKinoRay.mkv
Формат : Matroska
Версия формата : Version 2
Размер файла : 21,2 Гбайт
Продолжительность : 1 ч. 44 м.
Режим общего битрейта : Переменный
Общий поток : 29,0 Мбит/сек
Название фильма : Смурфики 2. 2013. Сборка ремукса: ollan
Дата кодирования : UTC 2013-11-14 08:21:11
Программа кодирования : mkvmerge v5.6.0 ('Kenya Kane') built on May 27 2012 16:44:04
Библиотека кодирования : libebml v1.2.3 + libmatroska v1.3.0

Видео
Идентификатор : 1
Формат : AVC
Формат/Информация : Advanced Video Codec
Профиль формата : High@L4.1
Параметр CABAC формата : Да
Параметр ReFrames формата : 2 кадра
Параметр GOP формата : M=1, N=10
Идентификатор кодека : V_MPEG4/ISO/AVC
Продолжительность : 1 ч. 44 м.
Вид битрейта : Переменный
Ширина : 1920 пикселей
Высота : 1080 пикселей
Соотношение сторон : 16:9
Режим частоты кадров : Постоянный
Частота кадров : 23,976 кадра/сек
Цветовое пространство : YUV
Субдискретизация насыщенности : 4:2:0
Битовая глубина : 8 бит
Тип развёртки : Прогрессивная
Default : Да
Forced : Нет

Аудио #1
Идентификатор : 2
Формат : AC-3
Формат/Информация : Audio Coding 3
Расширение режима : CM (complete main)
Параметр Endianness формата : Big
Идентификатор кодека : A_AC3
Продолжительность : 1 ч. 44 м.
Вид битрейта : Постоянный
Битрейт : 640 Кбит/сек
Каналы : 6 каналов
Расположение каналов : Front: L C R, Side: L R, LFE
Частота : 48,0 КГц
Битовая глубина : 16 бит
Метод сжатия : С потерями
Размер потока : 480 Мбайт (2%)
Заголовок : Дублированный
Язык : Russian
Default : Да
Forced : Да

Аудио #2
Идентификатор : 3
Формат : AC-3
Формат/Информация : Audio Coding 3
Расширение режима : CM (complete main)
Параметр Endianness формата : Big
Идентификатор кодека : A_AC3
Продолжительность : 1 ч. 44 м.
Вид битрейта : Постоянный
Битрейт : 640 Кбит/сек
Каналы : 6 каналов
Расположение каналов : Front: L C R, Side: L R, LFE
Частота : 48,0 КГц
Битовая глубина : 16 бит
Метод сжатия : С потерями
Размер потока : 480 Мбайт (2%)
Язык : Latvian
Default : Нет
Forced : Нет

Аудио #3
Идентификатор : 4
Формат : AC-3
Формат/Информация : Audio Coding 3
Расширение режима : CM (complete main)
Параметр Endianness формата : Big
Идентификатор кодека : A_AC3
Продолжительность : 1 ч. 44 м.
Вид битрейта : Постоянный
Битрейт : 640 Кбит/сек
Каналы : 6 каналов
Расположение каналов : Front: L C R, Side: L R, LFE
Частота : 48,0 КГц
Битовая глубина : 16 бит
Метод сжатия : С потерями
Размер потока : 480 Мбайт (2%)
Язык : Lithuanian
Default : Нет
Forced : Нет

Аудио #4
Идентификатор : 5
Формат : AC-3
Формат/Информация : Audio Coding 3
Расширение режима : CM (complete main)
Параметр Endianness формата : Big
Идентификатор кодека : A_AC3
Продолжительность : 1 ч. 44 м.
Вид битрейта : Постоянный
Битрейт : 640 Кбит/сек
Каналы : 6 каналов
Расположение каналов : Front: L C R, Side: L R, LFE
Частота : 48,0 КГц
Битовая глубина : 16 бит
Метод сжатия : С потерями
Размер потока : 480 Мбайт (2%)
Язык : Estonian
Default : Нет
Forced : Нет

Аудио #5
Идентификатор : 6
Формат : AC-3
Формат/Информация : Audio Coding 3
Расширение режима : CM (complete main)
Параметр Endianness формата : Big
Идентификатор кодека : A_AC3
Продолжительность : 1 ч. 44 м.
Вид битрейта : Постоянный
Битрейт : 640 Кбит/сек
Каналы : 6 каналов
Расположение каналов : Front: L C R, Side: L R, LFE
Частота : 48,0 КГц
Битовая глубина : 16 бит
Метод сжатия : С потерями
Размер потока : 480 Мбайт (2%)
Язык : Ukrainian
Default : Нет
Forced : Нет

Аудио #6
Идентификатор : 7
Формат : DTS
Формат/Информация : Digital Theater Systems
Профиль формата : MA / Core
Режим : 16
Параметр Endianness формата : Big
Идентификатор кодека : A_DTS
Продолжительность : 1 ч. 44 м.
Вид битрейта : Переменный
Битрейт : Неизвестно / 1509 Кбит/сек
Каналы : 6 каналов
Расположение каналов : Front: L C R, Side: L R, LFE
Частота : 48,0 КГц
Битовая глубина : 16 бит
Метод сжатия : Без потерь / Lossy
Язык : English
Default : Нет
Forced : Нет

Текст #1
Идентификатор : 8
Формат : UTF-8
Идентификатор кодека : S_TEXT/UTF8
Идентификатор кодека/Информация : UTF-8 Plain Text
Язык : Russian
Default : Нет
Forced : Нет

Текст #2
Идентификатор : 9
Формат : PGS
Режим смешивания : zlib
Идентификатор кодека : S_HDMV/PGS
Идентификатор кодека/Информация : The same subtitle format used on BDs/HD-DVDs
Язык : Russian
Default : Нет
Forced : Нет

Текст #3
Идентификатор : 10
Формат : PGS
Режим смешивания : zlib
Идентификатор кодека : S_HDMV/PGS
Идентификатор кодека/Информация : The same subtitle format used on BDs/HD-DVDs
Язык : Latvian
Default : Нет
Forced : Нет

Текст #4
Идентификатор : 11
Формат : PGS
Режим смешивания : zlib
Идентификатор кодека : S_HDMV/PGS
Идентификатор кодека/Информация : The same subtitle format used on BDs/HD-DVDs
Язык : Lithuanian
Default : Нет
Forced : Нет

Текст #5
Идентификатор : 12
Формат : PGS
Режим смешивания : zlib
Идентификатор кодека : S_HDMV/PGS
Идентификатор кодека/Информация : The same subtitle format used on BDs/HD-DVDs
Язык : Estonian
Default : Нет
Forced : Нет

Текст #6
Идентификатор : 13
Формат : PGS
Режим смешивания : zlib
Идентификатор кодека : S_HDMV/PGS
Идентификатор кодека/Информация : The same subtitle format used on BDs/HD-DVDs
Язык : Ukrainian
Default : Нет
Forced : Нет

Текст #7
Идентификатор : 14
Формат : UTF-8
Идентификатор кодека : S_TEXT/UTF8
Идентификатор кодека/Информация : UTF-8 Plain Text
Язык : English
Default : Нет
Forced : Нет

Текст #8
Идентификатор : 15
Формат : PGS
Режим смешивания : zlib
Идентификатор кодека : S_HDMV/PGS
Идентификатор кодека/Информация : The same subtitle format used on BDs/HD-DVDs
Язык : English
Default : Нет
Forced : Нет







Релиз от: Сборка:



   Похожие торренты   Торрент   Размер 
В этой теме нет новых непрочитанных сообщений. Смурфики 2 / The Smurfs 2 (2013) BDRemux 1080p от New-Team | D | лицензия

5 | 4

19.86 ГБ

В этой теме нет новых непрочитанных сообщений. Смурфики 2 / The Smurfs 2 (2013) Blu-Ray 1080p | Лицензия

50 | 38

34.15 ГБ

В этой теме нет новых непрочитанных сообщений. Смурфики 2 / The Smurfs 2 (2013) BDRip 1080p | HSBS | Лицензия | 3D-Video

68 | 9

10.45 ГБ

В этой теме нет новых непрочитанных сообщений. Смурфики 2 / The Smurfs 2 (2013) BDRip 1080p от Killbrain and Scarabey | Лицензия

5 | 2

8.15 ГБ

В этой теме нет новых непрочитанных сообщений. Смурфики 2 / The Smurfs 2 (2013) BDRip 1080p

359 | 15

7.76 ГБ

В этой теме нет новых непрочитанных сообщений. Смурфики 2 / The Smurfs 2 (2013) HDRip от New-Team | Лицензия

431 | 31

1.46 ГБ

В этой теме нет новых непрочитанных сообщений. Смурфики 2 / The Smurfs 2 (2013) BDRip от INTERCINEMA | Лицензия

57 | 2

2.05 ГБ




Вы не можете начинать темы
Вы не можете отвечать на сообщения
Вы не можете редактировать свои сообщения
Вы не можете удалять свои сообщения
Вы не можете добавлять вложения

Перейти:  
Для Мосгорсуда, Роскомнадзора и рекламодателей: mosgorsud-torrent[собачка]yandex.ru
 Вход
ppkBB3cker v.2 © 2008-2014 @ PPK
[ Time : 3.716s | 14 Queries | GZIP : Off ]

Торрент трекер RUTOR.IN, Не можете зайти на rutor.org? Какой новый адрес рутор? Какое зеркало рутор? Не работает rutor.org и зеркала? Тогда наш торрент специально для вас. Rutor.in неофициальное зеркало rutor. В случае если у Вас заблокирован rutor или вдруг Вы не можете на него зайти, то Вы без труда сможете скачать бесплатно и без рекламы последние новинки кино, игр, сериалов и прочего у нас, на Rutor.in. Не нужно использовать прокси, чтобы зайти на рутор, достаточно воспользоваться нашим ресурсом. Все новые фильмы, игры, сериалы, книги и музыка за 2013 и 2014 годы через торрент бесплатно. Скачивайте фильмы в хорошем качестве, игры для пк, xbox, playstation без регистрации. У нас вы найдете новые Зарубежные сериалы и Русские сериалы 2013, 2014, 2015 годов. Оставайтесь с нами, качайте любимые фильмы, игры, сериалы, книги и музыку.