img image001 image001 image001 image001 image001 image001 image001 image001 image001 image001 image001 image001 image001 image001 image001

Planets Sun Sun Sun
Статистика раздачи
Автор: PriZraK | Размер: 434.68 МБ | Добавлен: 15 фев 2014
Раздают: 12    Качают: 5
Скачать торрент
Скачать торрент
Описание торрента

СообщениеДобавлено: 15 фев 2014 


Как Гринч украл Рождество! / How the Grinch Stole Christmas!

Страна: США
Студия: The Cat in the Hat Productions
Год выпуска: 1966
Продолжительность: 00:25:45
Жанр: Фэнтези, комедия, мюзикл, семейный, мультфильм
Перевод: Любительский (одноголосый, закадровый) ELVIS10 + Любительский (одноголосый, закадровый) behaviour
Субтитры: нет

Режиссер: Чак Джонс / Chuck Jones, Бен Уошем / Ben Washam

В ролях: Борис Карлофф, Джун Форэй, Thurl Ravenscroft

Описание: Анимационная версия книги Доктора Сьюза "Как Гринч украл Рождество", вышедшаяя в телевизионный эфир в 1966 году и ставшая лучшей семейной рождественской картиной. Гринч живет на вершине холма над городком Ктоград со своим псом Максом. Каждый год во время Рождества ненависть Гринча к счастливым жителям Ктограда росла все больше и больше. Они дарили друг другу подарки, веселились на праздничных обедах и пели песни в городском парке, даже не подозревая о копяшейся обиде Гринча. Однажды Гринч решил сорвать Рождество. Переодевшись в Санта Клауса, наскоро снарядившись и заставив свою собаку тащить его на санях, он пробрался в дома ктовичей и украл их подарки, еду и украшения...



Качество: BDRip [Blu-ray 1080p]
Формат: AVI
Видео кодек: XviD
Аудио кодек: AC3
Видео: 720x528 (1.36:1), 23.976 fps, XviD build 73 ~1961 kbps avg, 0.22 bit/pixel
Аудио #1: 48 kHz, AC3 Dolby Digital, 2/0 (L,R) ch, ~192 kbps | ELVIS10
Аудио #2: 48 kHz, AC3 Dolby Digital, 2/0 (L,R) ch, ~192 kbps | behaviour

Раздача от:


D:Мои рипыKak.Grinch.Ukral.Rozhdestvo.1966.BDRip.dexter_lex.avi
General
Complete name : D:Мои рипыKak.Grinch.Ukral.Rozhdestvo.1966.BDRip.dexter_lex.avi
Format : AVI
Format/Info : Audio Video Interleave
File size : 435 MiB
Duration : 25mn 44s
Overall bit rate : 2 360 Kbps
Writing application : VirtualDubMod 1.5.10.3 | www.virtualdub-fr.org || (build 2550/release)
Writing library : VirtualDubMod build 2550/release
Video #0
ID : 0
Format : MPEG-4 Visual
Format profile : Advanced Simple@L5
Format settings, BVOP : 1
Format settings, QPel : No
Format settings, GMC : No warppoints
Format settings, Matrix : Custom
Codec ID : XVID
Codec ID/Hint : XviD
Duration : 25mn 44s
Bit rate : 1 962 Kbps
Width : 720 pixels
Height : 528 pixels
Display aspect ratio : 4:3
Frame rate : 23.976 fps
Color space : YUV
Chroma subsampling : 4:2:0
Bit depth : 8 bits
Scan type : Progressive
Compression mode : Lossy
Bits/(Pixel*Frame) : 0.215
Stream size : 361 MiB (83%)
Writing library : XviD 73
Audio #1
ID : 1
Format : AC-3
Format/Info : Audio Coding 3
Mode extension : CM (complete main)
Codec ID : 2000
Duration : 25mn 44s
Bit rate mode : Constant
Bit rate : 192 Kbps
Channel(s) : 2 channels
Channel positions : Front: L R
Sampling rate : 48.0 KHz
Bit depth : 16 bits
Compression mode : Lossy
Stream size : 35.3 MiB (8%)
Alignment : Split accross interleaves
Interleave, duration : 42 ms (1.00 video frame)
Interleave, preload duration : 500 ms
Audio #2
ID : 2
Format : AC-3
Format/Info : Audio Coding 3
Mode extension : CM (complete main)
Codec ID : 2000
Duration : 25mn 43s
Bit rate mode : Constant
Bit rate : 192 Kbps
Channel(s) : 2 channels
Channel positions : Front: L R
Sampling rate : 48.0 KHz
Bit depth : 16 bits
Compression mode : Lossy
Stream size : 35.3 MiB (8%)
Alignment : Split accross interleaves
Interleave, duration : 42 ms (1.00 video frame)
Interleave, preload duration : 500 ms



   Похожие торренты   Торрент   Размер 
В этой теме нет новых непрочитанных сообщений. Как Гринч украл Рождество! / How the Grinch Stole Christmas! (1966) BDRip-AVC от MediaClub

16 | 4

539.52 МБ

В этой теме нет новых непрочитанных сообщений. Как Гринч украл Рождество! / How the Grinch Stole Christmas! (1966) BDRip от HQCLUB

3 | 4

350.5 МБ

В этой теме нет новых непрочитанных сообщений. Как Гринч украл Рождество! / How the Grinch Stole Christmas! (1966) BDRip от FilmRus

26 | 5

421.05 МБ

В этой теме нет новых непрочитанных сообщений. Как Гринч украл Рождество! / How the Grinch Stole Christmas! (1966) BDRip 720p от FilmRus

1 | 2

567.12 МБ

В этой теме нет новых непрочитанных сообщений. Как Гринч украл Рождество! / How the Grinch Stole Christmas! (1966) BDRip 1080p от MediaClub

29 | 10

1.6 ГБ

В этой теме нет новых непрочитанных сообщений. Гринч – похититель Рождества / How the Grinch Stole Christmas (2000) BDRip-AVC

53 | 6

2.18 ГБ

В этой теме нет новых непрочитанных сообщений. Гринч – похититель Рождества / How the Grinch Stole Christmas (2000) BDRip 1080p

248 | 15

7.76 ГБ




Вы не можете начинать темы
Вы не можете отвечать на сообщения
Вы не можете редактировать свои сообщения
Вы не можете удалять свои сообщения
Вы не можете добавлять вложения

Перейти:  
Для Мосгорсуда, Роскомнадзора и рекламодателей: mosgorsud-torrent[собачка]yandex.ru
 Вход
ppkBB3cker v.2 © 2008-2014 @ PPK
[ Time : 0.038s | 17 Queries | GZIP : Off ]

Торрент трекер RUTOR.IN, Не можете зайти на rutor.org? Какой новый адрес рутор? Какое зеркало рутор? Не работает rutor.org и зеркала? Тогда наш торрент специально для вас. Rutor.in неофициальное зеркало rutor. В случае если у Вас заблокирован rutor или вдруг Вы не можете на него зайти, то Вы без труда сможете скачать бесплатно и без рекламы последние новинки кино, игр, сериалов и прочего у нас, на Rutor.in. Не нужно использовать прокси, чтобы зайти на рутор, достаточно воспользоваться нашим ресурсом. Все новые фильмы, игры, сериалы, книги и музыка за 2013 и 2014 годы через торрент бесплатно. Скачивайте фильмы в хорошем качестве, игры для пк, xbox, playstation без регистрации. У нас вы найдете новые Зарубежные сериалы и Русские сериалы 2013, 2014, 2015 годов. Оставайтесь с нами, качайте любимые фильмы, игры, сериалы, книги и музыку.
cron