img image001 image001 image001 image001 image001 image001 image001 image001 image001 image001 image001 image001 image001 image001 image001

Planets Sun Sun Sun
Статистика раздачи
Автор: PriZraK | Размер: 642.63 МБ | Добавлен: 15 фев 2014
Раздают: 12    Качают: 2
Скачать торрент
Скачать торрент
Описание торрента

СообщениеДобавлено: 15 фев 2014 


Кролик Джазит

Год выпуска: 2013
Выпущено: Китай
Жанр: Мультфильм
Продолжительность: 00:10:08 (+- 5 секунд)
Перевод: Профессиональный (полное дублирование) [Back Board Cinema]
Субтитры: Отсутствуют

Количество серий 01-05 из 52

Режиссер: Чжан Юй

В ролях: Дмитрий Стрелков,Татьяна Кулакова

Описание: «Кролик Джазит» – красочный китайский мультсериал, населенный забавными и выразительными персонажами. Понравится любому ребенку от 3 лет. Вполне возможно, что и взрослые с удовольствием присоединятся к маленьким зрителям. «Кролик Джазит» погружает в мир музыки и удивительных приключений ушастого героя, который день за днем делает все новые открытия. Маленькому Кролику снится страшный сон – он хочет войти в красивый дворец, но откуда-то раздается голос, говорящий о том, что попасть сюда можно только проявив свои вокальные способности. Кролик просыпается в холодном поту: ему совсем не хочется петь. По правде говоря, его отношения с музыкой складываются не лучшим образом – учиться довольно скучно. Он сменил уже не одного преподавателя, но все без толку: нотная грамота никак не дается этому непоседливому малышу. Ему хочется вовсе не учебы, а чудес и приключений. И тогда мама Кролика предлагает ему поступить следующим образом: он выучит хотя бы одну песню, а они с папой возьмут его с собой в настоящее путешествие.

Качество: WEBDLRip исходник WEBDL 720
Формат: AVI
Видео кодек: XviD
Аудио кодек: AC3
Видео: 688x384 (1.79:1), 23.976 fps, XviD MPEG-4 ~1360 kbps avg, 0.21 bit/pixel
Аудио: 48 kHz, AC3 Dolby Digital, 2/0 (L,R) ch, ~192 kbps

Общее
Полное имя : D:Рипы выкладка [Deadmauvlad]Кролик Джазит.1Сезон.WEBDLRip. DeadmauvladКролик Джазит.1.Серия_WEBDLRip_Deadmauvlad.avi
Формат : AVI
Формат/Информация : Audio Video Interleave
Размер файла : 116 Мбайт
Продолжительность : 10 м.
Общий поток : 1563 Кбит/сек
Название фильма : Кролик Джазит.1.Серия_WEBDLRip_Deadmauvlad
Режиссёр : Deadmauvlad
Жанр : Genre_03+
Программа кодирования : XviD4PSP 6.0 / 54.29.105
Формат оригинала/Имя : Мультфильм
Правообладатель : Deadmauvlad Team'S

Видео
Идентификатор : 0
Формат : MPEG-4 Visual
Профиль формата : Advanced Simple@L5
Параметр BVOP формата : 3
Параметр QPel формата : Нет
Параметр GMC формата : 3 точки перехода
Параметр матрицы формата : Default (MPEG)
Режим смешивания : Сжатый битовый поток
Идентификатор кодека : XVID
Идентификатор кодека/Подсказка : XviD
Продолжительность : 10 м.
Битрейт : 1360 Кбит/сек
Ширина : 688 пикселей
Высота : 384 пикселя
Соотношение сторон : 16:9
Частота кадров : 23,976 кадра/сек
Цветовое пространство : YUV
Субдискретизация насыщенности : 4:2:0
Битовая глубина : 8 бит
Тип развёртки : Прогрессивная
Метод сжатия : С потерями
Бит/(Пиксели*Кадры) : 0.215
Размер потока : 101 Мбайт (87%)
Библиотека кодирования : XviD 64

Аудио
Идентификатор : 1
Формат : AC-3
Формат/Информация : Audio Coding 3
Расширение режима : CM (complete main)
Параметр Endianness формата : Big
Идентификатор кодека : 2000
Продолжительность : 10 м.
Вид битрейта : Постоянный
Битрейт : 192 Кбит/сек
Каналы : 2 канала
Расположение каналов : Front: L R
Частота : 48,0 КГц
Битовая глубина : 16 бит
Метод сжатия : С потерями
Размер потока : 14,3 Мбайт (12%)
Выравнивание : Соединение по промежуткам
Продолжительность промежутка : 32 мс. (0,77 видеокадр)


Доп. информация:
Сериал дублирован по заказу компании NRG Film Distribution
Роли дублировали:
Татьяна Кулакова, Дмитрий Стрелков

Перевод Павла Тугаринова
Режиссер дубляжа: Светлана Климович
Авторские права © Студия дубляжа «Back Board Cinema». 2011-2013.





Релиз от Deadmauvlad



   Похожие торренты   Торрент   Размер 
В этой теме нет новых непрочитанных сообщений. Кролик Джазит / Rabbit Dzhazit [01-16 из 52] (2013) WEB-DL 720 от Deadmauvlad | D

9 | 14

3.03 ГБ

В этой теме нет новых непрочитанных сообщений. Кролик Джазит / Rabbit Dzhazit / The Mystery Journey of Jazzit [01-12 из 52] (2013) WEB-DL 720 от Deadmauvlad | D

10 | 55

2.28 ГБ

В этой теме нет новых непрочитанных сообщений. Кролик Джазит / Rabbit Dzhazit / The Mystery Journey of Jazzit [01-06 из 52] (2013) WEB-DL 720 от Deadmauvlad | D

7 | 4

1.14 ГБ

В этой теме нет новых непрочитанных сообщений. Кролик Джазит / Rabbit Dzhazit [01-52 из 52] (2013) WEB-DLRip от Generalfilm | D

3 | 5

7.62 ГБ

В этой теме нет новых непрочитанных сообщений. Кролик Джазит II / The Mystery Journey of Jazzit II [s02] (2013) WEB-DLRip от ExKinoRay | D

0 | 0

7.66 ГБ

В этой теме нет новых непрочитанных сообщений. Кролик Джазит / The Mystery Journey of Jazzit [s01] (2013) WEB-DLRip от ExKinoRay | D

2 | 1

6.83 ГБ

В этой теме нет новых непрочитанных сообщений. Кролик Джазит / The Mystery Journey of Jazzit [s01] (2013) WEB-DLRip 720p от ExKinoRay | D

0 | 0

4.99 ГБ




Вы не можете начинать темы
Вы не можете отвечать на сообщения
Вы не можете редактировать свои сообщения
Вы не можете удалять свои сообщения
Вы не можете добавлять вложения

Перейти:  
Для Мосгорсуда, Роскомнадзора и рекламодателей: mosgorsud-torrent[собачка]yandex.ru
 Вход
ppkBB3cker v.2 © 2008-2014 @ PPK
[ Time : 0.037s | 15 Queries | GZIP : Off ]

cron