img image001 image001 image001 image001 image001 image001 image001 image001 image001 image001 image001 image001 image001 image001 image001

Planets Sun Sun Sun
Статистика раздачи
Автор: PriZraK | Размер: 4.37 ГБ | Добавлен: 15 фев 2014
Раздают: 209    Качают: 13
Скачать торрент
Скачать торрент
Описание торрента

СообщениеДобавлено: 15 фев 2014 




Информация о фильме
Название: Корпорация монстров
Оригинальное название: Monsters, Inc.
Год выхода: 2001
Жанр: мультфильм, фэнтези, комедия, приключения, семейный
Режиссер: Пит Доктер, Дэвид Силверман, Ли Анкрич
В ролях: Джон Гудман, Билли Кристал, Мэри Гиббс, Стив Бушеми, Джеймс Кобурн, Дженнифер Тилли, Боб Петерсон, Джон Ратценбергер, Фрэнк Оз, Дэн Джерсон, Стив Сусскинд, Бонни Хант, Джефф Пиджон, Сэмюэл Лорд Блэк, Джек Энджел, Боб Берген, Роджер Бампасс, Джино Конфорти, Дженнифер Дарлинг, Патти Дьютч, Пит Доктер

О фильме:
Склизский гад в сливном бачке, мохнатый зверь, похожий на чудовище из «Аленького цветочка», гигантские мокрицы под кроватью - все они существуют на самом деле. Все, что им нужно - пугать детей, потому что из детских криков они получают электричество.

Полнометражный мультфильм рассказывает о кризисах в мире монстров, их жизни. Но однажды вся мирная жизнь монстров оказывается под угрозой: в их мир попадает ребенок. А с детьми столько хлопот, что они могут довести даже монстров.



Выпущено: США
Студия: Walt Disney Pictures, Pixar Animation Studios
Продолжительность: 01:32:15
Перевод: Дублированный (лицензия) + Оригинал

Файл
Кодек: x264
Качество: BDRip (источник: Blu-ray Disc)
Видео: 1280x690 (1,85:1), 23.976 fps, 5503 kbps
Аудио #1: AC-3, 6 ch, 640 kbps (Rus)
Аудио #2: AC-3, 6 ch, 640 kbps (Eng)
Субтитры: Русские, Английские

Общее
Уникальный идентификатор : 207404355163963584615777920746732112700 (0x9C08A035C8651B47B1D4CE02459BCB3C)
Полное имя : F:Monsters.Inc.2001.BDRip.720p.Rus.Eng.mkv
Формат : Matroska
Версия формата : Version 2
Размер файла : 4,37 Гбайт
Продолжительность : 1 ч. 32 м.
Общий поток : 6783 Кбит/сек
Название фильма : Корпорация монстров / Monsters, Inc. (2001)
Дата кодирования : UTC 2013-11-15 02:43:22
Программа кодирования : mkvmerge v5.8.0 ('No Sleep / Pillow') built on Sep 2 2012 15:37:04
Библиотека кодирования : libebml v1.2.3 + libmatroska v1.3.0
Attachment : Yes

Видео
Идентификатор : 1
Формат : AVC
Формат/Информация : Advanced Video Codec
Профиль формата : High@L4.1
Параметр CABAC формата : Да
Параметр ReFrames формата : 9 кадров
Идентификатор кодека : V_MPEG4/ISO/AVC
Продолжительность : 1 ч. 32 м.
Битрейт : 5503 Кбит/сек
Ширина : 1280 пикселей
Высота : 690 пикселей
Соотношение сторон : 1,85:1
Режим частоты кадров : Постоянный
Частота кадров : 23,976 кадра/сек
Цветовое пространство : YUV
Субдискретизация насыщенности : 4:2:0
Битовая глубина : 8 бит
Тип развёртки : Прогрессивная
Бит/(Пиксели*Кадры) : 0.260
Размер потока : 3,46 Гбайт (79%)
Заголовок : Release by N1NT3NDO
Библиотека кодирования : x264 core 140 r2377 1ca7bb9
Настройки программы : cabac=1 / ref=9 / deblock=1:-3:-3 / analyse=0x3:0x133 / me=umh / subme=11 / psy=1 / psy_rd=1.00:0.00 / mixed_ref=1 / me_range=32 / chroma_me=1 / trellis=2 / 8x8dct=1 / cqm=0 / deadzone=21,11 / fast_pskip=0 / chroma_qp_offset=-2 / threads=12 / lookahead_threads=1 / sliced_threads=0 / nr=0 / decimate=0 / interlaced=0 / bluray_compat=0 / constrained_intra=0 / bframes=6 / b_pyramid=2 / b_adapt=2 / b_bias=0 / direct=3 / weightb=1 / open_gop=0 / weightp=2 / keyint=240 / keyint_min=23 / scenecut=40 / intra_refresh=0 / rc=2pass / mbtree=0 / bitrate=5503 / ratetol=1.0 / qcomp=0.60 / qpmin=0 / qpmax=69 / qpstep=4 / cplxblur=20.0 / qblur=0.5 / ip_ratio=1.40 / pb_ratio=1.30 / aq=1:1.00
Язык : English
Default : Да
Forced : Нет

Аудио #1
Идентификатор : 2
Формат : AC-3
Формат/Информация : Audio Coding 3
Расширение режима : CM (complete main)
Параметр Endianness формата : Big
Идентификатор кодека : A_AC3
Продолжительность : 1 ч. 32 м.
Вид битрейта : Постоянный
Битрейт : 640 Кбит/сек
Каналы : 6 каналов
Расположение каналов : Front: L C R, Side: L R, LFE
Частота : 48,0 КГц
Битовая глубина : 16 бит
Метод сжатия : С потерями
Размер потока : 422 Мбайт (9%)
Заголовок : Rus
Язык : Russian
Default : Да
Forced : Нет

Аудио #2
Идентификатор : 3
Формат : AC-3
Формат/Информация : Audio Coding 3
Расширение режима : CM (complete main)
Параметр Endianness формата : Big
Идентификатор кодека : A_AC3
Продолжительность : 1 ч. 32 м.
Вид битрейта : Постоянный
Битрейт : 640 Кбит/сек
Каналы : 6 каналов
Расположение каналов : Front: L C R, Side: L R, LFE
Частота : 48,0 КГц
Битовая глубина : 16 бит
Метод сжатия : С потерями
Размер потока : 422 Мбайт (9%)
Заголовок : Eng
Язык : English
Default : Нет
Forced : Нет

Текст #1
Идентификатор : 4
Формат : UTF-8
Идентификатор кодека : S_TEXT/UTF8
Идентификатор кодека/Информация : UTF-8 Plain Text
Заголовок : Rus
Язык : Russian
Default : Нет
Forced : Нет

Текст #2
Идентификатор : 5
Формат : UTF-8
Идентификатор кодека : S_TEXT/UTF8
Идентификатор кодека/Информация : UTF-8 Plain Text
Заголовок : Eng
Язык : English
Default : Нет
Forced : Нет

Меню
00:00:00.000 : :Chapter 01
00:01:33.092 : :Chapter 02
00:03:07.604 : :Chapter 03
00:04:51.124 : :Chapter 04
00:07:16.936 : :Chapter 05
00:09:11.509 : :Chapter 06
00:10:43.601 : :Chapter 07
00:11:53.796 : :Chapter 08
00:17:25.794 : :Chapter 09
00:20:06.079 : :Chapter 10
00:22:03.780 : :Chapter 11
00:25:48.421 : :Chapter 12
00:28:34.963 : :Chapter 13
00:31:06.489 : :Chapter 14
00:34:49.962 : :Chapter 15
00:36:55.630 : :Chapter 16
00:38:50.286 : :Chapter 17
00:40:27.883 : :Chapter 18
00:43:34.278 : :Chapter 19
00:45:29.726 : :Chapter 20
00:48:07.426 : :Chapter 21
00:50:37.159 : :Chapter 22
00:54:41.277 : :Chapter 23
00:57:29.445 : :Chapter 24
01:03:42.026 : :Chapter 25
01:06:25.022 : :Chapter 26
01:07:26.375 : :Chapter 27
01:13:52.135 : :Chapter 28
01:17:49.581 : :Chapter 29
01:21:24.921 : :Chapter 30
01:24:07.959 : :Chapter 31
01:25:06.225 : :Chapter 32



   Похожие торренты   Торрент   Размер 
В этой теме нет новых непрочитанных сообщений. Корпорация монстров / Monsters, Inc. / Университет монстров / Monsters University (2001-2013) BDRip 720p от Leonardo and Scarabey | iPad

705 | 203

3.31 ГБ

В этой теме нет новых непрочитанных сообщений. Корпорация Монстров / Monsters, Inc. (2001) BDRip [720p] от HQ-ViDEO

34 | 6

4.66 ГБ

В этой теме нет новых непрочитанных сообщений. Корпорация Монстров / Monsters, Inc. (2001) BDRip 720p от MediaClub

35 | 6

5 ГБ

В этой теме нет новых непрочитанных сообщений. Корпорация Монстров / Monsters, Inc. (2001) BDRip 720p | Дополнительные материалы

14 | 2

5.11 ГБ

В этой теме нет новых непрочитанных сообщений. Корпорация монстров + Бонус / Monsters, Inc. (2001) BDRip 720p от 0day

1 | 2

4.73 ГБ

В этой теме нет новых непрочитанных сообщений. Корпорация монстров / Monsters, Inc. (2001) BDRip 720p от Leonardo and Scarabey

393 | 30

3.55 ГБ

В этой теме нет новых непрочитанных сообщений. Корпорация монстров / Monsters, Inc. (2001) BDRip | D

126 | 7

698.26 МБ




Вы не можете начинать темы
Вы не можете отвечать на сообщения
Вы не можете редактировать свои сообщения
Вы не можете удалять свои сообщения
Вы не можете добавлять вложения

Перейти:  
Для Мосгорсуда, Роскомнадзора и рекламодателей: mosgorsud-torrent[собачка]yandex.ru
 Вход
ppkBB3cker v.2 © 2008-2014 @ PPK
[ Time : 0.035s | 15 Queries | GZIP : Off ]

Торрент трекер RUTOR.IN, Не можете зайти на rutor.org? Какой новый адрес рутор? Какое зеркало рутор? Не работает rutor.org и зеркала? Тогда наш торрент специально для вас. Rutor.in неофициальное зеркало rutor. В случае если у Вас заблокирован rutor или вдруг Вы не можете на него зайти, то Вы без труда сможете скачать бесплатно и без рекламы последние новинки кино, игр, сериалов и прочего у нас, на Rutor.in. Не нужно использовать прокси, чтобы зайти на рутор, достаточно воспользоваться нашим ресурсом. Все новые фильмы, игры, сериалы, книги и музыка за 2013 и 2014 годы через торрент бесплатно. Скачивайте фильмы в хорошем качестве, игры для пк, xbox, playstation без регистрации. У нас вы найдете новые Зарубежные сериалы и Русские сериалы 2013, 2014, 2015 годов. Оставайтесь с нами, качайте любимые фильмы, игры, сериалы, книги и музыку.