img image001 image001 image001 image001 image001 image001 image001 image001 image001 image001 image001 image001 image001 image001 image001

Planets Sun Sun Sun
Статистика раздачи
Автор: PriZraK | Размер: 4.37 ГБ | Добавлен: 15 фев 2014
Раздают: 547    Качают: 33
Скачать торрент
Скачать торрент
Описание торрента

СообщениеДобавлено: 15 фев 2014 




Информация о фильме
Название: Университет монстров
Оригинальное название: Monsters University
Год выхода: 2013
Жанр: мультфильм, фэнтези, комедия, приключения, семейный
Режиссер: Дэн Скэнлон
В ролях: Джон Гудман, Билли Кристал, Стив Бушеми, Хелен Миррен, Питер Сон, Джоэль Мюррей, Шон Хейс, Дэйв Фоли, Чарли Дэй, Альфред Молина

О фильме:
Майк и Салли - самые опытные пугатели в Монстрополисе, но так было далеко не всегда. Когда они встретились впервые, эти монстры терпеть друг друга не могли. «Университет Монстров» - история о том, как наши старые знакомые прошли путь от взаимной неприязни к крепкой дружбе.



Выпущено: США
Студия: Walt Disney Pictures, Pixar Animation Studios
Продолжительность: 01:44:17
Перевод: Дублированный (лицензия) + Оригинал

Файл
Кодек: x264
Качество: BDRip (источник: Blu-ray Disc)
Видео: 1280x720 (1.78:1), 23.976 fps, 4720 kbps
Аудио #1: AC-3, 6 ch, 640 kbps (Rus)
Аудио #2: AC-3, 6 ch, 640 kbps (Eng)
Субтитры: Русские, Английские

Общее
Уникальный идентификатор : 188540814953878909162569895931278240263 (0x8DD7A3DF4A3C98AB86DBE405402FAA07)
Полное имя : F:Monsters.University.2013.BDRip.720p.Rus.Eng.mkv
Формат : Matroska
Версия формата : Version 2
Размер файла : 4,37 Гбайт
Продолжительность : 1 ч. 44 м.
Общий поток : 6005 Кбит/сек
Название фильма : Университет монстров / Monsters University (2013)
Дата кодирования : UTC 2013-11-17 16:51:24
Программа кодирования : mkvmerge v5.8.0 ('No Sleep / Pillow') built on Sep 2 2012 15:37:04
Библиотека кодирования : libebml v1.2.3 + libmatroska v1.3.0
Attachment : Yes

Видео
Идентификатор : 1
Формат : AVC
Формат/Информация : Advanced Video Codec
Профиль формата : High@L4.1
Параметр CABAC формата : Да
Параметр ReFrames формата : 9 кадров
Идентификатор кодека : V_MPEG4/ISO/AVC
Продолжительность : 1 ч. 44 м.
Битрейт : 4720 Кбит/сек
Ширина : 1280 пикселей
Высота : 720 пикселей
Соотношение сторон : 16:9
Режим частоты кадров : Постоянный
Частота кадров : 23,976 кадра/сек
Цветовое пространство : YUV
Субдискретизация насыщенности : 4:2:0
Битовая глубина : 8 бит
Тип развёртки : Прогрессивная
Бит/(Пиксели*Кадры) : 0.214
Размер потока : 3,35 Гбайт (77%)
Заголовок : Release by N1NT3NDO
Библиотека кодирования : x264 core 140 r2377 1ca7bb9
Настройки программы : cabac=1 / ref=9 / deblock=1:-3:-3 / analyse=0x3:0x133 / me=umh / subme=11 / psy=1 / psy_rd=1.00:0.00 / mixed_ref=1 / me_range=32 / chroma_me=1 / trellis=2 / 8x8dct=1 / cqm=0 / deadzone=21,11 / fast_pskip=0 / chroma_qp_offset=-2 / threads=12 / lookahead_threads=1 / sliced_threads=0 / nr=0 / decimate=0 / interlaced=0 / bluray_compat=0 / constrained_intra=0 / bframes=6 / b_pyramid=2 / b_adapt=2 / b_bias=0 / direct=3 / weightb=1 / open_gop=0 / weightp=2 / keyint=240 / keyint_min=23 / scenecut=40 / intra_refresh=0 / rc=2pass / mbtree=0 / bitrate=4720 / ratetol=1.0 / qcomp=0.60 / qpmin=0 / qpmax=69 / qpstep=4 / cplxblur=20.0 / qblur=0.5 / ip_ratio=1.40 / pb_ratio=1.30 / aq=1:1.00
Язык : English
Default : Да
Forced : Нет

Аудио #1
Идентификатор : 2
Формат : AC-3
Формат/Информация : Audio Coding 3
Расширение режима : CM (complete main)
Параметр Endianness формата : Big
Идентификатор кодека : A_AC3
Продолжительность : 1 ч. 44 м.
Вид битрейта : Постоянный
Битрейт : 640 Кбит/сек
Каналы : 6 каналов
Расположение каналов : Front: L C R, Side: L R, LFE
Частота : 48,0 КГц
Битовая глубина : 16 бит
Метод сжатия : С потерями
Размер потока : 477 Мбайт (11%)
Заголовок : Rus
Язык : Russian
Default : Да
Forced : Нет

Аудио #2
Идентификатор : 3
Формат : AC-3
Формат/Информация : Audio Coding 3
Расширение режима : CM (complete main)
Параметр Endianness формата : Big
Идентификатор кодека : A_AC3
Продолжительность : 1 ч. 44 м.
Вид битрейта : Постоянный
Битрейт : 640 Кбит/сек
Каналы : 6 каналов
Расположение каналов : Front: L C R, Side: L R, LFE
Частота : 48,0 КГц
Битовая глубина : 16 бит
Метод сжатия : С потерями
Размер потока : 477 Мбайт (11%)
Заголовок : Eng
Язык : English
Default : Нет
Forced : Нет

Текст #1
Идентификатор : 4
Формат : UTF-8
Идентификатор кодека : S_TEXT/UTF8
Идентификатор кодека/Информация : UTF-8 Plain Text
Заголовок : Rus
Язык : Russian
Default : Нет
Forced : Нет

Текст #2
Идентификатор : 5
Формат : UTF-8
Идентификатор кодека : S_TEXT/UTF8
Идентификатор кодека/Информация : UTF-8 Plain Text
Заголовок : Eng
Язык : English
Default : Нет
Forced : Нет

Меню
00:00:00.000 : :Field Trip
00:06:26.719 : :Titles
00:07:06.884 : :Freshman Orientation
00:10:54.111 : :Roommates
00:12:19.947 : :First Day
00:16:09.968 : :Not My Room
00:18:15.635 : :Pig Chase
00:19:37.592 : :A Challenge
00:21:06.848 : :1st Semester Showdown
00:23:43.630 : :Kicked Out
00:29:22.719 : :Dream Over
00:30:39.462 : :Mike's Plan
00:33:38.099 : :OK Brothers
00:36:30.980 : :Initiation
00:38:19.421 : :First Morning
00:39:22.568 : :Toxicity Challenge
00:45:13.335 : :My Way
00:47:14.831 : :Keep Quiet
00:51:08.148 : :Party Like Scarers
00:55:21.192 : :Cute-me Kappa
00:57:30.321 : :The Big Leagues
01:01:42.239 : :Teamwork
01:04:37.289 : :A Seed Of Doubt
01:07:33.006 : :Final Competition
01:14:11.321 : :A Betrayal
01:18:07.849 : :Door Breach
01:19:25.718 : :Searching For Mike
01:23:53.402 : :Shut Down
01:24:38.656 : :The Big Scare
01:28:00.232 : :Separate Ways
01:32:51.356 : :Epilogue
01:34:24.032 : :End Credits



   Похожие торренты   Торрент   Размер 
В этой теме нет новых непрочитанных сообщений. Корпорация монстров / Monsters, Inc. / Университет монстров / Monsters University (2001-2013) BDRip 720p от Leonardo and Scarabey | iPad

655 | 191

3.31 ГБ

В этой теме нет новых непрочитанных сообщений. Университет монстров / Monsters University (2013) BDRip 720p | D | Лицензия

67 | 9

5.95 ГБ

В этой теме нет новых непрочитанных сообщений. Корпорация монстров 2 / Университет монстров / Monsters University (2013) BDRip 1080p | Трейлер

335 | 9

43.7 МБ

В этой теме нет новых непрочитанных сообщений. Университет монстров / Monsters University (2013) BDRip-720p | Дополнительные материалы

17 | 10

4.48 ГБ

В этой теме нет новых непрочитанных сообщений. Университет монстров / Monsters University (2013) BDRip 720p от leonardo 59 & Scarabey | Лицензия

225 | 21

3.53 ГБ

В этой теме нет новых непрочитанных сообщений. Университет монстров / Monsters University (2013) BDRip от HQCLUB

153 | 19

2.18 ГБ

В этой теме нет новых непрочитанных сообщений. Университет монстров / Monsters University (2013) BDRip от HQ-ViDEO

362 | 100

1.74 ГБ




Вы не можете начинать темы
Вы не можете отвечать на сообщения
Вы не можете редактировать свои сообщения
Вы не можете удалять свои сообщения
Вы не можете добавлять вложения

Перейти:  
Для Мосгорсуда, Роскомнадзора и рекламодателей: mosgorsud-torrent[собачка]yandex.ru
 Вход
ppkBB3cker v.2 © 2008-2014 @ PPK
[ Time : 0.115s | 14 Queries | GZIP : Off ]

Торрент трекер RUTOR.IN, Не можете зайти на rutor.org? Какой новый адрес рутор? Какое зеркало рутор? Не работает rutor.org и зеркала? Тогда наш торрент специально для вас. Rutor.in неофициальное зеркало rutor. В случае если у Вас заблокирован rutor или вдруг Вы не можете на него зайти, то Вы без труда сможете скачать бесплатно и без рекламы последние новинки кино, игр, сериалов и прочего у нас, на Rutor.in. Не нужно использовать прокси, чтобы зайти на рутор, достаточно воспользоваться нашим ресурсом. Все новые фильмы, игры, сериалы, книги и музыка за 2013 и 2014 годы через торрент бесплатно. Скачивайте фильмы в хорошем качестве, игры для пк, xbox, playstation без регистрации. У нас вы найдете новые Зарубежные сериалы и Русские сериалы 2013, 2014, 2015 годов. Оставайтесь с нами, качайте любимые фильмы, игры, сериалы, книги и музыку.