img image001 image001 image001 image001 image001 image001 image001 image001 image001 image001 image001 image001 image001 image001 image001

Planets Sun Sun Sun
Статистика раздачи
Автор: PriZraK | Размер: 1.46 ГБ | Добавлен: 15 фев 2014
Раздают: 322    Качают: 28
Скачать торрент
Скачать торрент
Описание торрента

СообщениеДобавлено: 15 фев 2014 


Мулан / Mulan

Год выпуска: 1998
Страна: США
Жанр: мультфильм, приключения, драма, семейный
Продолжительность: 01:27:43
Перевод: Профессиональный (полное дублирование)
Cубтитры: нет

Режиссер: Тони Бэнкрофт /Tony Bancroft, Бэрри Кук /Barry Cook
Роли озвучивали: Мигель Феррер, Харви Файерстин, Фреда Фо Шен, Джун Форэй, Джеймс Хонг, Мириам Марголис, Пэт Морита, Эдди Мёрфи, Марни Никсон, Сун-Тек Ох

Роли дублировали: Николай Буров, Валерий Кравченко, Татьяна Иванова, Нина Потаповская, Владимир Летенков, Людмила Ксенофонтова, Александр Демьяненко, Валерий Кухарешин, Игорь Ефимов, Геннадий Смирнов
Описание: Для великого народа наступили тяжелые времена: на страну напало воинственное племя гуннов. Переодевшись в мужскую одежду, Мулан присоединяется к другим воинам и отправляется в опасный поход к подножию заснеженных гор. Ее сопровождает забавный дракончик Мушу, который больше похож на маленькую собачку, чем на мифическое чудовище. Пытаясь скрыть тайну, они попадают в забавные ситуации и не подозревают, что их секрет вот-вот раскроется!…

Описание: Для великого народа наступили тяжелые времена: на страну напало воинственное племя гуннов. Переодевшись в мужскую одежду, Мулан присоединяется к другим воинам и отправляется в опасный поход к подножию заснеженных гор. Ее сопровождает забавный дракончик Мушу, который больше похож на маленькую собачку, чем на мифическое чудовище.

Пытаясь скрыть тайну, они попадают в забавные ситуации и не подозревают, что их секрет вот — вот раскроется!…



Качество: HDRip [BDRip 1080p]
Формат: AVI
Видео кодек: XviD
Аудио кодек: AC3
Видео: 704x416 (1.69:1), 23.976 fps, XviD build 73 ~1924 kbps avg, 0.27 bit/pixel
Аудио: 48 kHz, AC3 Dolby Digital, 3/2 (L,C,R,l,r) + LFE ch, ~448 kbps

Раздача от:


D:Мои рипыMulan.1998.HDRip.dexter_lex.avi
General
Complete name : D:Мои рипыMulan.1998.HDRip.dexter_lex.avi
Format : AVI
Format/Info : Audio Video Interleave
File size : 1.46 GiB
Duration : 1h 27mn
Overall bit rate : 2 382 Kbps
Writing application : VirtualDubMod 1.5.10.3 | www.virtualdub-fr.org || (build 2550/release)
Writing library : VirtualDubMod build 2550/release
Video #0
ID : 0
Format : MPEG-4 Visual
Format profile : Advanced Simple@L5
Format settings, BVOP : 1
Format settings, QPel : No
Format settings, GMC : No warppoints
Format settings, Matrix : Custom
Codec ID : XVID
Codec ID/Hint : XviD
Duration : 1h 27mn
Bit rate : 1 925 Kbps
Width : 704 pixels
Height : 416 pixels
Display aspect ratio : 1.692
Frame rate : 23.976 fps
Color space : YUV
Chroma subsampling : 4:2:0
Bit depth : 8 bits
Scan type : Progressive
Compression mode : Lossy
Bits/(Pixel*Frame) : 0.274
Stream size : 1.18 GiB (81%)
Writing library : XviD 73
Audio #1
ID : 1
Format : AC-3
Format/Info : Audio Coding 3
Mode extension : CM (complete main)
Codec ID : 2000
Duration : 1h 27mn
Bit rate mode : Constant
Bit rate : 448 Kbps
Channel(s) : 6 channels
Channel positions : Front: L C R, Side: L R, LFE
Sampling rate : 48.0 KHz
Bit depth : 16 bits
Compression mode : Lossy
Stream size : 281 MiB (19%)
Alignment : Split accross interleaves
Interleave, duration : 42 ms (1.00 video frame)
Interleave, preload duration : 500 ms



   Похожие торренты   Торрент   Размер 
В этой теме нет новых непрочитанных сообщений. Мулан / Mulan (1998) HDRip от New-Team

243 | 24

747.51 МБ

В этой теме нет новых непрочитанных сообщений. Мулан / Mulan (1998) HDRip от Scarabey | D

287 | 10

1.45 ГБ

В этой теме нет новых непрочитанных сообщений. Мулан / Mulan (1998) HDRip от Scarabey | D

133 | 8

745.97 МБ

В этой теме нет новых непрочитанных сообщений. Мулан / Mulan (1998) DVDRip-AVC

15 | 2

1007.69 МБ

В этой теме нет новых непрочитанных сообщений. Мулан / Mulan (1998) BDRip от HQCLUB

1463 | 41

1.45 ГБ

В этой теме нет новых непрочитанных сообщений. Мулан / Mulan (1998) BDRip-AVC от MediaClub | D, P2, A

52 | 4

2.73 ГБ

В этой теме нет новых непрочитанных сообщений. Мулан / Mulan (1998) HDTVRip-AVC 1080p от FREEISLAND

41 | 13

4.36 ГБ




Вы не можете начинать темы
Вы не можете отвечать на сообщения
Вы не можете редактировать свои сообщения
Вы не можете удалять свои сообщения
Вы не можете добавлять вложения

Перейти:  
Для Мосгорсуда, Роскомнадзора и рекламодателей: mosgorsud-torrent[собачка]yandex.ru
 Вход
ppkBB3cker v.2 © 2008-2014 @ PPK
[ Time : 0.041s | 16 Queries | GZIP : Off ]

cron