img image001 image001 image001 image001 image001 image001 image001 image001 image001 image001 image001 image001 image001 image001 image001

Planets Sun Sun Sun
Статистика раздачи
Автор: PriZraK | Размер: 747.51 МБ | Добавлен: 15 фев 2014
Раздают: 243    Качают: 24
Скачать торрент
Скачать торрент
Описание торрента

СообщениеДобавлено: 15 фев 2014 


Мулан / Mulan

Год выпуска: 1998
Страна: США
Жанр: мультфильм, приключения, драма, семейный
Продолжительность: 01:27:50
Перевод: Профессиональный (полное дублирование)
Cубтитры: нет

Режиссер: Тони Бэнкрофт /Tony Bancroft, Бэрри Кук /Barry Cook
Роли озвучивали: Мигель Феррер, Харви Файерстин, Фреда Фо Шен, Джун Форэй, Джеймс Хонг, Мириам Марголис, Пэт Морита, Эдди Мёрфи, Марни Никсон, Сун-Тек Ох

Роли дублировали: Николай Буров, Валерий Кравченко, Татьяна Иванова, Нина Потаповская, Владимир Летенков, Людмила Ксенофонтова, Александр Демьяненко, Валерий Кухарешин, Игорь Ефимов, Геннадий Смирнов
Описание: Для великого народа наступили тяжелые времена: на страну напало воинственное племя гуннов. Переодевшись в мужскую одежду, Мулан присоединяется к другим воинам и отправляется в опасный поход к подножию заснеженных гор. Ее сопровождает забавный дракончик Мушу, который больше похож на маленькую собачку, чем на мифическое чудовище. Пытаясь скрыть тайну, они попадают в забавные ситуации и не подозревают, что их секрет вот-вот раскроется!…

Описание: Для великого народа наступили тяжелые времена: на страну напало воинственное племя гуннов. Переодевшись в мужскую одежду, Мулан присоединяется к другим воинам и отправляется в опасный поход к подножию заснеженных гор. Ее сопровождает забавный дракончик Мушу, который больше похож на маленькую собачку, чем на мифическое чудовище.

Пытаясь скрыть тайну, они попадают в забавные ситуации и не подозревают, что их секрет вот — вот раскроется!…



Качество: HDRip [BDRip 1080p]
Формат: AVI
Видео кодек: XviD
Аудио кодек: MP3
Видео: 640x384 (1.67:1), 23.976 fps, XviD build 73 ~1052 kbps avg, 0.18 bit/pixel
Аудио: 48 kHz, MPEG Layer 3, 2 ch, ~128.00 kbps avg

Раздача от:


D:Мои рипыMulan.1998.HDRip.D.dexter_lex.avi
General
Complete name : D:Мои рипыMulan.1998.HDRip.D.dexter_lex.avi
Format : AVI
Format/Info : Audio Video Interleave
File size : 748 MiB
Duration : 1h 27mn
Overall bit rate : 1 190 Kbps
Writing application : VirtualDubMod 1.5.10.3 | www.virtualdub-fr.org || (build 2550/release)
Writing library : VirtualDubMod build 2550/release
Video #0
ID : 0
Format : MPEG-4 Visual
Format profile : Advanced Simple@L5
Format settings, BVOP : 1
Format settings, QPel : No
Format settings, GMC : No warppoints
Format settings, Matrix : Custom
Codec ID : XVID
Codec ID/Hint : XviD
Duration : 1h 27mn
Bit rate : 1 052 Kbps
Width : 640 pixels
Height : 384 pixels
Display aspect ratio : 1.667
Frame rate : 23.976 fps
Color space : YUV
Chroma subsampling : 4:2:0
Bit depth : 8 bits
Scan type : Progressive
Compression mode : Lossy
Bits/(Pixel*Frame) : 0.179
Stream size : 661 MiB (88%)
Writing library : XviD 73
Audio #1
ID : 1
Format : MPEG Audio
Format version : Version 1
Format profile : Layer 3
Codec ID : 55
Codec ID/Hint : MP3
Duration : 1h 27mn
Bit rate mode : Constant
Bit rate : 128 Kbps
Channel(s) : 2 channels
Sampling rate : 48.0 KHz
Compression mode : Lossy
Stream size : 80.4 MiB (11%)
Alignment : Aligned on interleaves
Interleave, duration : 42 ms (1.00 video frame)
Interleave, preload duration : 504 ms
Writing library : LAME3.99r
Encoding settings : -m s -V 4 -q 2 -lowpass 17 -b 128




   Похожие торренты   Торрент   Размер 
В этой теме нет новых непрочитанных сообщений. Мулан / Mulan (1998) HDRip от New-Team

322 | 28

1.46 ГБ

В этой теме нет новых непрочитанных сообщений. Мулан / Mulan (1998) HDRip от Scarabey | D

133 | 8

745.97 МБ

В этой теме нет новых непрочитанных сообщений. Мулан / Mulan (1998) HDRip от Scarabey | D

287 | 10

1.45 ГБ

В этой теме нет новых непрочитанных сообщений. Мулан / Mulan (1998) DVDRip-AVC

15 | 2

1007.69 МБ

В этой теме нет новых непрочитанных сообщений. Мулан / Mulan (1998) BDRip от HQCLUB

1463 | 41

1.45 ГБ

В этой теме нет новых непрочитанных сообщений. Мулан / Mulan (1998) BDRip-AVC от MediaClub | D, P2, A

52 | 4

2.73 ГБ

В этой теме нет новых непрочитанных сообщений. Мулан / Mulan (1998) HDTVRip-AVC 1080p от FREEISLAND

41 | 13

4.36 ГБ




Вы не можете начинать темы
Вы не можете отвечать на сообщения
Вы не можете редактировать свои сообщения
Вы не можете удалять свои сообщения
Вы не можете добавлять вложения

Перейти:  
Для Мосгорсуда, Роскомнадзора и рекламодателей: mosgorsud-torrent[собачка]yandex.ru
 Вход
ppkBB3cker v.2 © 2008-2014 @ PPK
[ Time : 1.002s | 17 Queries | GZIP : Off ]

cron