img image001 image001 image001 image001 image001 image001 image001 image001 image001 image001 image001 image001 image001 image001 image001

Planets Sun Sun Sun
Статистика раздачи
Автор: PriZraK | Размер: 20.6 ГБ | Добавлен: 15 фев 2014
Раздают: 124    Качают: 44
Скачать торрент
Скачать торрент
Описание торрента

СообщениеДобавлено: 15 фев 2014 


Маша и Медведь (2009-2013) [37 серий] + Машины Сказки (2012) [12 серий] BDRip 720p
Релиз от GYN

Информация о фильме:
Название: Маша и Медведь (сериал)
Оригинальное название:
Год выхода: 2009 - 2013
Жанр: Мультфильм, Короткометражка, Комедия, Семейный
Режиссёры: Олег Кузовков, Олег Ужинов, Денис Червяцов, Марина Нефедова, Ольга Баулина, Роман Козич
В ролях: Алина Кукушкина, Борис Кутневич, Эдуард Назаров
Сюжет фильма:
Мультсериал про девочку Машу, которая никому не дает покоя, и в первую очередь - своему другу Медведю.

Страна: Россия
Продолжительность: 04:24:39 (37 x ~ 00:07:00) + 01:11:37 (12 x ~ 00:06:00)
Перевод: Не требуется
Субтитры: Отсутствуют
Информация о файле:
Качество: BDRip 720p
Файл: MKV
Кодек: MPEG-4 AVC, H264 codec
Видео: , 16:9; 24.000 fps (True24p) & 25.000 fps; ~ 7726 kbps; 0.341 bit/pixel
Аудио: 48 kHz, DTS, 3/2 (L,C,R,l,r) + LFE ch, ~1 510.00 kbps avg | (1 - 25 серии)
Аудио: 48 kHz, AC3 Dolby Digital, 2.0 (L,R) ch, ~192.00 kbps avg | (Все остальные серии)
Размер: 37 x 477 Mb ; 12 x 286 Mb
Общий размер: 20.5 Gb

Маша и Медведь:
1. Первая встреча
2. До весны не будить!
3. Раз, два, три! Ёлочка, гори!
4. Весна пришла!
5. Ловись, рыбка!
6. Следы невиданных зверей
7. С волками жить...
8. Позвони мне, позвони!
9. День варенья
10. Праздник на льду
11. Первый раз в первый класс
12. Граница на замке
13. Кто не спрятался, я не виноват!
14. Лыжню!
15. Будьте здоровы!
16. Маша + каша
17. Дальний родственник
18. Большая стирка
19. Репетиция оркестра
20. Усатый-полосатый
21. Один дома
22. Дышите! Не дышите!
23. Подкидыш
24. Приятного аппетита
25. Фокус-покус
26. Осторожно, ремонт!
27. Картина маслом
28. Ход конём
29. Хит сезона
30. Витамин роста
31. Новая метла
32. Когда все дома
33. Сладкая жизнь
34. Фотография 9 на 12
35. Трудно быть маленьким
36. Двое на одного
37. Большое путешествие
Машины Сказки:
1. Волк и семеро козлят
2. Гуси-лебеди
3. Красная шапочка
4. Лиса и заяц
5. Морозко
6. Волк и лиса
7. Вершки и корешки
8. Царевна-лягушка
9. Снегурочка
10. Мальчик-с-пальчик
11. Крошечка-хаврошечка
12. Бычок смоляной бочок
General
Unique ID : 229570291568253462638769223973035961914 (0xACB5A1404B4D10459CBD40C94E7DEE3A)
Complete name : D:Masha.i.Medved.720p.h264.AC3.-GYNМаша и Медведь25_Фокус-Покус.mkv
Format : Matroska
Format version : Version 2
File size : 477 MiB
Duration : 7mn 13s
Overall bit rate mode : Variable
Overall bit rate : 9 228 Kbps
Movie name : Фокус-Покус (2012)
Encoded date : UTC 2012-06-22 06:33:29
Writing application : mkvmerge v3.3.0 ('Language') built on Mar 24 2010 14:59:24
Writing library : libebml v0.8.0 + libmatroska v0.9.0
Video
ID : 1
Format : AVC
Format/Info : Advanced Video Codec
Format profile : High@L4.1
Format settings, CABAC : Yes
Format settings, ReFrames : 6 frames
Codec ID : V_MPEG4/ISO/AVC
Duration : 7mn 13s
Bit rate mode : Variable
Bit rate : 7 534 Kbps
Maximum bit rate : 7 726 Kbps
Width : 1 280 pixels
Height : 720 pixels
Display aspect ratio : 16:9
Frame rate : 24.000 fps
Color space : YUV
Chroma subsampling : 4:2:0
Bit depth : 8 bits
Scan type : Progressive
Bits/(Pixel*Frame) : 0.341
Stream size : 390 MiB (82%)
Title : Encoded by GYN
Default : Yes
Forced : No
Audio
ID : 2
Format : DTS
Format/Info : Digital Theater Systems
Codec ID : A_DTS
Duration : 7mn 13s
Bit rate mode : Constant
Bit rate : 1 510 Kbps
Channel(s) : 6 channels
Channel positions : Front: L C R, Side: L R, LFE
Sampling rate : 48.0 KHz
Bit depth : 16 bits
Compression mode : Lossy
Stream size : 78.1 MiB (16%)
Title : Original
Language : Russian
Default : Yes
Forced : No

ПРИЯТНОГО ПРОСМОТРА!



   Похожие торренты   Торрент   Размер 
В этой теме нет новых непрочитанных сообщений. Маша и Медведь [01-38] + Машины Сказки [01-26] (2009-2013) BDRip 720p от Freeisland

91 | 25

13.24 ГБ

В этой теме нет новых непрочитанных сообщений. Маша и Медведь [01-40] + Машины Сказки [01-26] (2009-2013) BDRip 720p от Freeisland

131 | 119

13.71 ГБ

В этой теме нет новых непрочитанных сообщений. Маша и Медведь + Машины сказки + Машины страшилки (2009-2015) BDRip 720p | KinoGadget and KinoXa | iPad

101 | 305

9.33 ГБ

В этой теме нет новых непрочитанных сообщений. Маша и Медведь [01-38] + Машины Сказки [01-26] (2009-2013) BDRip

277 | 366

5.61 ГБ

В этой теме нет новых непрочитанных сообщений. Маша и Медведь [01-45] + Машины Сказки [01-26] (2009-2014) BDRip 720p

3892 | 1256

13.24 ГБ

В этой теме нет новых непрочитанных сообщений. Маша и Медведь [01-43] + Машины Сказки [01-26] (2009-2014) BDRip 720p

99 | 122

13.75 ГБ

В этой теме нет новых непрочитанных сообщений. Маша и Медведь [01-38] + Машины Сказки [01-26] (2009-2013) BDRip 1080p

51 | 24

19.43 ГБ




Вы не можете начинать темы
Вы не можете отвечать на сообщения
Вы не можете редактировать свои сообщения
Вы не можете удалять свои сообщения
Вы не можете добавлять вложения

Перейти:  
Для Мосгорсуда, Роскомнадзора и рекламодателей: mosgorsud-torrent[собачка]yandex.ru
 Вход
ppkBB3cker v.2 © 2008-2014 @ PPK
[ Time : 0.040s | 14 Queries | GZIP : Off ]

Торрент трекер RUTOR.IN, Не можете зайти на rutor.org? Какой новый адрес рутор? Какое зеркало рутор? Не работает rutor.org и зеркала? Тогда наш торрент специально для вас. Rutor.in неофициальное зеркало rutor. В случае если у Вас заблокирован rutor или вдруг Вы не можете на него зайти, то Вы без труда сможете скачать бесплатно и без рекламы последние новинки кино, игр, сериалов и прочего у нас, на Rutor.in. Не нужно использовать прокси, чтобы зайти на рутор, достаточно воспользоваться нашим ресурсом. Все новые фильмы, игры, сериалы, книги и музыка за 2013 и 2014 годы через торрент бесплатно. Скачивайте фильмы в хорошем качестве, игры для пк, xbox, playstation без регистрации. У нас вы найдете новые Зарубежные сериалы и Русские сериалы 2013, 2014, 2015 годов. Оставайтесь с нами, качайте любимые фильмы, игры, сериалы, книги и музыку.