img image001 image001 image001 image001 image001 image001 image001 image001 image001 image001 image001 image001 image001 image001 image001

Planets Sun Sun Sun
Статистика раздачи
Автор: PriZraK | Размер: 412.06 МБ | Добавлен: 15 фев 2014
Раздают: 23    Качают: 4
Скачать торрент
Скачать торрент
Описание торрента

СообщениеДобавлено: 15 фев 2014 




Страна: США / Walt Disney Animation Studios
Жанр: мультфильм, короткометражка, фэнтези, комедия, семейный
Год выпуска: 2011
Продолжительность: 00:20:42

Перевод: Профессиональный (дублированный)
Cубтитры: русский, русский форсированный, английский, английский (SDH)
Оригинальная аудиодорожка: английский

Режиссер: Кевин Дитерс / Kevin Deters, Стиви Вермерс / Stevie Wermers

В ролях: Сара Чок, Дэйв Фоли, Эмили Элин Линд, Крис Парнелл, Дерек Ричардсон, Роб Риггл, Уильям Морган Шеппард, Энн Локхарт

Роли дублировали: Ирина Киреева, Диомид Виноградов, Прохор Чеховской, Пётр Иващенко, Михаил Георгиу

Описание: Что может быть сложнее, чем спасти грядущее Рождество? Судьба уготовила отважным эльфам Уэйну и Лэнни новую миссию по спасению грядущего праздника… А поможет им в этом старый знакомый Уэйна — эльф-угольщик Ноэл.



Качество: DVDRip / DVD9 R5
Формат: AVI

Видео: 720x400 (16:9), 25.000 fps, XVID ~2000 kbps avg, 0.278 bit/pixel
Аудио 1: Русский 48 kHz, АС3, 6 ch, 384.00 kbps Constant
Аудио 2: Английский 48 kHz, АС3, 6 ch, 384.00 kbps Constant

Раздача от:
Общее
Полное имя : Sekretnaya.slujba.Santy.Shaluny.protiv.painek.2011.DVDRip_[New-Team]_by_avproh1.avi
Формат : AVI
Формат/Информация : Audio Video Interleave
Размер файла : 412 Мбайт
Продолжительность : 20 м.
Общий поток : 2783 Кбит/сек
Программа кодирования : VirtualDubModRus 1.5.10.2 (build 2542/release)
Библиотека кодирования : VirtualDubMod build 2542/release

Видео
Идентификатор : 0
Формат : MPEG-4 Visual
Профиль формата : Advanced Simple@L5
Параметр BVOP формата : 1
Параметр QPel формата : Нет
Параметр GMC формата : Без точки перехода
Параметр матрицы формата : Выборочная
Идентификатор кодека : XVID
Идентификатор кодека/Подсказка : XviD
Продолжительность : 20 м.
Битрейт : 2000 Кбит/сек
Ширина : 720 пикселей
Высота : 400 пикселей
Соотношение сторон : 16:9
Частота кадров : 25,000 кадров/сек
Цветовое пространство : YUV
Субдискретизация насыщенности : 4:2:0
Битовая глубина : 8 бит
Тип развёртки : Прогрессивная
Метод сжатия : С потерями
Бит/(Пиксели*Кадры) : 0.278
Размер потока : 296 Мбайт (72%)
Библиотека кодирования : XviD 73

Аудио #1
Идентификатор : 1
Формат : AC-3
Формат/Информация : Audio Coding 3
Расширение режима : CM (complete main)
Параметр Endianness формата : Big
Идентификатор кодека : 2000
Продолжительность : 20 м.
Вид битрейта : Постоянный
Битрейт : 384 Кбит/сек
Каналы : 6 каналов
Расположение каналов : Front: L C R, Side: L R, LFE
Частота : 48,0 КГц
Битовая глубина : 16 бит
Метод сжатия : С потерями
Размер потока : 56,9 Мбайт (14%)
Выравнивание : Разделение по промежуткам
Продолжительность промежутка : 40 мс. (1,00 видеокадр)
Время предзагрузки промежутка : 500 мс.

Аудио #2
Идентификатор : 2
Формат : AC-3
Формат/Информация : Audio Coding 3
Расширение режима : CM (complete main)
Параметр Endianness формата : Big
Идентификатор кодека : 2000
Продолжительность : 20 м.
Вид битрейта : Постоянный
Битрейт : 384 Кбит/сек
Каналы : 6 каналов
Расположение каналов : Front: L C R, Side: L R, LFE
Частота : 48,0 КГц
Битовая глубина : 16 бит
Метод сжатия : С потерями
Размер потока : 56,9 Мбайт (14%)
Выравнивание : Разделение по промежуткам
Продолжительность промежутка : 40 мс. (1,00 видеокадр)
Время предзагрузки промежутка : 500 мс.





   Похожие торренты   Торрент   Размер 
В этой теме нет новых непрочитанных сообщений. Секретная служба Санты: Шалуны против Паинек / Prep & Landing: Naughty vs. Nice (2011) DVDRip-AVC от New-Team | D | лицензия

18 | 4

411.22 МБ

В этой теме нет новых непрочитанных сообщений. Секретная служба Санты: Шалуны против Паинек / Prep & Landing: Naughty vs. Nice (2011) DVD9 от New-Team | D | Лицензия

5 | 2

5.32 ГБ

В этой теме нет новых непрочитанных сообщений. Секретная служба Санты: Шалуны против Паинек / Prep & Landing: Naughty vs. Nice (2011) DVD5 от New-Team | D | Сжатый

8 | 6

3.63 ГБ

В этой теме нет новых непрочитанных сообщений. Секретная служба Санты: Шалуны против Паинек / Prep & Landing: Naughty vs. Nice (2011) BDRip 720p от Leonardo and Scarabey | Лицензия

49 | 6

610.17 МБ

В этой теме нет новых непрочитанных сообщений. Секретная служба Санты: Шалуны против Паинек / Prep & Landing: Naughty vs. Nice (2011) BDRip-AVC от SuperMin

26 | 9

338.81 МБ

В этой теме нет новых непрочитанных сообщений. Секретная служба Санты: Шалуны против послушных / Prep & Landing: Naughty vs. Nice (2011) HDTVRip от F-Torrent

2 | 2

499.53 МБ

В этой теме нет новых непрочитанных сообщений. Секретная служба Санты: Шалуны против послушных / Prep & Landing: Naughty vs. Nice (2011) HDTVRip 720p

20 | 4

667.51 МБ




Вы не можете начинать темы
Вы не можете отвечать на сообщения
Вы не можете редактировать свои сообщения
Вы не можете удалять свои сообщения
Вы не можете добавлять вложения

Перейти:  
Для Мосгорсуда, Роскомнадзора и рекламодателей: mosgorsud-torrent[собачка]yandex.ru
 Вход
ppkBB3cker v.2 © 2008-2014 @ PPK
[ Time : 0.057s | 17 Queries | GZIP : Off ]

Торрент трекер RUTOR.IN, Не можете зайти на rutor.org? Какой новый адрес рутор? Какое зеркало рутор? Не работает rutor.org и зеркала? Тогда наш торрент специально для вас. Rutor.in неофициальное зеркало rutor. В случае если у Вас заблокирован rutor или вдруг Вы не можете на него зайти, то Вы без труда сможете скачать бесплатно и без рекламы последние новинки кино, игр, сериалов и прочего у нас, на Rutor.in. Не нужно использовать прокси, чтобы зайти на рутор, достаточно воспользоваться нашим ресурсом. Все новые фильмы, игры, сериалы, книги и музыка за 2013 и 2014 годы через торрент бесплатно. Скачивайте фильмы в хорошем качестве, игры для пк, xbox, playstation без регистрации. У нас вы найдете новые Зарубежные сериалы и Русские сериалы 2013, 2014, 2015 годов. Оставайтесь с нами, качайте любимые фильмы, игры, сериалы, книги и музыку.
cron