img image001 image001 image001 image001 image001 image001 image001 image001 image001 image001 image001 image001 image001 image001 image001

Planets Sun Sun Sun
Статистика раздачи
Автор: PriZraK | Размер: 411.22 МБ | Добавлен: 15 фев 2014
Раздают: 19    Качают: 5
Скачать торрент
Скачать торрент
Описание торрента

СообщениеДобавлено: 15 фев 2014 




Страна: США / Walt Disney Animation Studios
Жанр: мультфильм, короткометражка, фэнтези, комедия, семейный
Год выпуска: 2011
Продолжительность: 00:20:42

Перевод: Профессиональный (дублированный)
Cубтитры: русский, русский форсированный, английский, английский (SDH)
Оригинальная аудиодорожка: английский

Режиссер: Кевин Дитерс / Kevin Deters, Стиви Вермерс / Stevie Wermers

В ролях: Сара Чок, Дэйв Фоли, Эмили Элин Линд, Крис Парнелл, Дерек Ричардсон, Роб Риггл, Уильям Морган Шеппард, Энн Локхарт

Роли дублировали: Ирина Киреева, Диомид Виноградов, Прохор Чеховской, Пётр Иващенко, Михаил Георгиу

Описание: Что может быть сложнее, чем спасти грядущее Рождество? Судьба уготовила отважным эльфам Уэйну и Лэнни новую миссию по спасению грядущего праздника… А поможет им в этом старый знакомый Уэйна — эльф-угольщик Ноэл.



Качество: DVDRip-AVC / DVD9 R5
Формат: MKV

Видео: 720x576@1024x576 (16:9), 25.000 fps, H264 ~2006 kbps avg, 0.193 bit/pixel
Аудио 1: Русский 48 kHz, АС3, 6 ch, 384.00 kbps Constant
Аудио 2: Английский 48 kHz, АС3, 6 ch, 384.00 kbps Constant

Раздача от:
Общее
Полное имя : Sekretnaya.slujba.Santy.Shaluny.protiv.painek.2011.DVDRip-AVC_[New-Team]_by_avproh.mkv
Формат : Matroska
Версия формата : Version 4 / Version 2
Размер файла : 411 Мбайт
Продолжительность : 20 м.
Общий поток : 2777 Кбит/сек
Дата кодирования : UTC 2013-11-23 15:31:25
Программа кодирования : mkvmerge v6.5.0 ('Isn't she lovely') built on Oct 20 2013 12:50:05
Библиотека кодирования : libebml v1.3.0 + libmatroska v1.4.1

Видео
Идентификатор : 1
Формат : AVC
Формат/Информация : Advanced Video Codec
Профиль формата : High@L4.1
Параметр CABAC формата : Да
Параметр ReFrames формата : 6 кадров
Идентификатор кодека : V_MPEG4/ISO/AVC
Продолжительность : 20 м.
Битрейт : 2006 Кбит/сек
Ширина : 720 пикселей
Высота : 576 пикселей
Соотношение сторон : 16:9
Режим частоты кадров : Постоянный
Частота кадров : 25,000 кадров/сек
Стандарт вещания : PAL
Цветовое пространство : YUV
Субдискретизация насыщенности : 4:2:0
Битовая глубина : 8 бит
Тип развёртки : Прогрессивная
Бит/(Пиксели*Кадры) : 0.193
Размер потока : 289 Мбайт (70%)
Библиотека кодирования : x264 core 138 r2356 a1d3d17
Настройки программы : cabac=1 / ref=6 / deblock=1:-2:-1 / analyse=0x3:0x113 / me=umh / subme=10 / psy=1 / psy_rd=1.00:0.05 / mixed_ref=1 / me_range=32 / chroma_me=1 / trellis=2 / 8x8dct=1 / cqm=0 / deadzone=21,11 / fast_pskip=0 / chroma_qp_offset=-3 / threads=9 / lookahead_threads=1 / sliced_threads=0 / nr=0 / decimate=0 / interlaced=0 / bluray_compat=0 / constrained_intra=0 / bframes=8 / b_pyramid=2 / b_adapt=2 / b_bias=0 / direct=3 / weightb=1 / open_gop=0 / weightp=2 / keyint=250 / keyint_min=25 / scenecut=40 / intra_refresh=0 / rc=2pass / mbtree=0 / bitrate=2006 / ratetol=1.0 / qcomp=0.60 / qpmin=0 / qpmax=69 / qpstep=4 / cplxblur=20.0 / qblur=0.5 / ip_ratio=1.40 / pb_ratio=1.30 / aq=1:1.00
Язык : English
Default : Да
Forced : Нет

Аудио #1
Идентификатор : 2
Формат : AC-3
Формат/Информация : Audio Coding 3
Расширение режима : CM (complete main)
Параметр Endianness формата : Big
Идентификатор кодека : A_AC3
Продолжительность : 20 м.
Вид битрейта : Постоянный
Битрейт : 384 Кбит/сек
Каналы : 6 каналов
Расположение каналов : Front: L C R, Side: L R, LFE
Частота : 48,0 КГц
Битовая глубина : 16 бит
Метод сжатия : С потерями
Размер потока : 56,9 Мбайт (14%)
Язык : Russian
Default : Да
Forced : Нет

Аудио #2
Идентификатор : 3
Формат : AC-3
Формат/Информация : Audio Coding 3
Расширение режима : CM (complete main)
Параметр Endianness формата : Big
Идентификатор кодека : A_AC3
Продолжительность : 20 м.
Вид битрейта : Постоянный
Битрейт : 384 Кбит/сек
Каналы : 6 каналов
Расположение каналов : Front: L C R, Side: L R, LFE
Частота : 48,0 КГц
Битовая глубина : 16 бит
Метод сжатия : С потерями
Размер потока : 56,9 Мбайт (14%)
Язык : English
Default : Нет
Forced : Нет

Текст #1
Идентификатор : 4
Формат : UTF-8
Идентификатор кодека : S_TEXT/UTF8
Идентификатор кодека/Информация : UTF-8 Plain Text
Заголовок : forced
Язык : Russian
Default : Да
Forced : Нет

Текст #2
Идентификатор : 5
Формат : UTF-8
Идентификатор кодека : S_TEXT/UTF8
Идентификатор кодека/Информация : UTF-8 Plain Text
Язык : Russian
Default : Нет
Forced : Нет

Текст #3
Идентификатор : 6
Формат : UTF-8
Идентификатор кодека : S_TEXT/UTF8
Идентификатор кодека/Информация : UTF-8 Plain Text
Язык : English
Default : Нет
Forced : Нет

Текст #4
Идентификатор : 7
Формат : UTF-8
Идентификатор кодека : S_TEXT/UTF8
Идентификатор кодека/Информация : UTF-8 Plain Text
Заголовок : SDH
Язык : English
Default : Нет
Forced : Нет





   Похожие торренты   Торрент   Размер 
В этой теме нет новых непрочитанных сообщений. Секретная служба Санты: Шалуны против Паинек / Prep & Landing: Naughty vs. Nice (2011) DVDRip от New-Team | D | лицензия

24 | 5

412.06 МБ

В этой теме нет новых непрочитанных сообщений. Секретная служба Санты: Шалуны против Паинек / Prep & Landing: Naughty vs. Nice (2011) DVD9 от New-Team | D | Лицензия

8 | 4

5.32 ГБ

В этой теме нет новых непрочитанных сообщений. Секретная служба Санты: Шалуны против Паинек / Prep & Landing: Naughty vs. Nice (2011) DVD5 от New-Team | D | Сжатый

10 | 8

3.63 ГБ

В этой теме нет новых непрочитанных сообщений. Секретная служба Санты: Шалуны против Паинек / Prep & Landing: Naughty vs. Nice (2011) BDRip 720p от Leonardo and Scarabey | Лицензия

46 | 6

610.17 МБ

В этой теме нет новых непрочитанных сообщений. Секретная служба Санты: Шалуны против Паинек / Prep & Landing: Naughty vs. Nice (2011) BDRip-AVC от SuperMin

26 | 9

338.81 МБ

В этой теме нет новых непрочитанных сообщений. Секретная служба Санты: Шалуны против послушных / Prep & Landing: Naughty vs. Nice (2011) HDTVRip от F-Torrent

2 | 2

499.53 МБ

В этой теме нет новых непрочитанных сообщений. Секретная служба Санты: Шалуны против послушных / Prep & Landing: Naughty vs. Nice (2011) HDTVRip 720p

20 | 4

667.51 МБ




Вы не можете начинать темы
Вы не можете отвечать на сообщения
Вы не можете редактировать свои сообщения
Вы не можете удалять свои сообщения
Вы не можете добавлять вложения

Перейти:  
Для Мосгорсуда, Роскомнадзора и рекламодателей: mosgorsud-torrent[собачка]yandex.ru
 Вход
ppkBB3cker v.2 © 2008-2014 @ PPK
[ Time : 0.059s | 15 Queries | GZIP : Off ]

Торрент трекер RUTOR.IN, Не можете зайти на rutor.org? Какой новый адрес рутор? Какое зеркало рутор? Не работает rutor.org и зеркала? Тогда наш торрент специально для вас. Rutor.in неофициальное зеркало rutor. В случае если у Вас заблокирован rutor или вдруг Вы не можете на него зайти, то Вы без труда сможете скачать бесплатно и без рекламы последние новинки кино, игр, сериалов и прочего у нас, на Rutor.in. Не нужно использовать прокси, чтобы зайти на рутор, достаточно воспользоваться нашим ресурсом. Все новые фильмы, игры, сериалы, книги и музыка за 2013 и 2014 годы через торрент бесплатно. Скачивайте фильмы в хорошем качестве, игры для пк, xbox, playstation без регистрации. У нас вы найдете новые Зарубежные сериалы и Русские сериалы 2013, 2014, 2015 годов. Оставайтесь с нами, качайте любимые фильмы, игры, сериалы, книги и музыку.