img image001 image001 image001 image001 image001 image001 image001 image001 image001 image001 image001 image001 image001 image001 image001

Planets Sun Sun Sun
Статистика раздачи
Автор: PriZraK | Размер: 1.37 ГБ | Добавлен: 15 фев 2014
Раздают: 415    Качают: 4
Скачать торрент
Скачать торрент
Описание торрента

СообщениеДобавлено: 15 фев 2014 




Страна: Россия / Кинокомпания CTB, Руссобит-М...
Жанр: мультфильм, фэнтези
Год выпуска: 2013
Продолжительность: 01:08:41

Перевод: Не требуется
Cубтитры: нет
Оригинальная аудиодорожка: русский

Режиссер: Георгий Гитис, Вячеслав Плотников

В ролях: Михаил Озеров, Дмитрий Дюжев, Юлия Савичева, Андрей Леонов, Нонна Гришаева, Алексей Колган, Михаил Хрусталев, Анатолий Петров, Юлия Галдун, Владимир Горбунов...

Описание: Во исполнение воли царя Берендея, младший сын его Иван отправляется на поиски диковинной Жар-птицы. В поисках удачи Ивана Царевича сопровождает верный друг и помощник — Серый Волк, который, обладает всевозможными навыками и всегда спешит на помощь простодушному Ивану. Героев ждут увлекательные и опасные приключения, козни коварных братьев Ивана и его судьбоносная встреча с Еленой Прекрасной. Юные зрители погрузятся в волшебный мир русской сказки, с её традициями и характерной эстетикой, причудливо перемежающейся с приметами современного жанрового кино. Ну, а родители оценят актуальный юмор и модную современную музыку, написанную специально для фильма популярными рок-музыкантами.



Качество: BDRip / Blu-ray 1080p
Формат: AVI

Видео: 720x400 (16:9), 24.000 fps, XVID ~2394 kbps avg, 0.346 bit/pixel
Аудио: Русский 48 kHz, АС3, 6 ch, 448.00 kbps Constant

Раздача от:
Общее
Полное имя : Kak.poimat.pero.Jar-Ptitsy.2013.O.BDRip_[New-Team]_by_avproh.avi
Формат : AVI
Формат/Информация : Audio Video Interleave
Размер файла : 1,37 Гбайт
Продолжительность : 1 ч. 8 м.
Общий поток : 2851 Кбит/сек
Программа кодирования : VirtualDubModRus 1.5.10.2 (build 2542/release)
Библиотека кодирования : VirtualDubMod build 2542/release

Видео
Идентификатор : 0
Формат : MPEG-4 Visual
Профиль формата : Advanced Simple@L5
Параметр BVOP формата : 1
Параметр QPel формата : Нет
Параметр GMC формата : Без точки перехода
Параметр матрицы формата : Выборочная
Идентификатор кодека : XVID
Идентификатор кодека/Подсказка : XviD
Продолжительность : 1 ч. 8 м.
Битрейт : 2394 Кбит/сек
Ширина : 720 пикселей
Высота : 400 пикселей
Соотношение сторон : 16:9
Частота кадров : 24,000 кадра/сек
Цветовое пространство : YUV
Субдискретизация насыщенности : 4:2:0
Битовая глубина : 8 бит
Тип развёртки : Прогрессивная
Метод сжатия : С потерями
Бит/(Пиксели*Кадры) : 0.346
Размер потока : 1,15 Гбайт (84%)
Библиотека кодирования : XviD 73

Аудио
Идентификатор : 1
Формат : AC-3
Формат/Информация : Audio Coding 3
Расширение режима : CM (complete main)
Параметр Endianness формата : Big
Идентификатор кодека : 2000
Продолжительность : 1 ч. 8 м.
Вид битрейта : Постоянный
Битрейт : 448 Кбит/сек
Каналы : 6 каналов
Расположение каналов : Front: L C R, Side: L R, LFE
Частота : 48,0 КГц
Битовая глубина : 16 бит
Метод сжатия : С потерями
Размер потока : 220 Мбайт (16%)
Выравнивание : Разделение по промежуткам
Продолжительность промежутка : 42 мс. (1,00 видеокадр)
Время предзагрузки промежутка : 500 мс.





   Похожие торренты   Торрент   Размер 
В этой теме нет новых непрочитанных сообщений. Как поймать перо Жар-Птицы (2013) BDRip от New-Team | лицензия

98 | 6

745.06 МБ

В этой теме нет новых непрочитанных сообщений. Как поймать перо Жар-Птицы (2013) BDRip-AVC от New-Team | лицензия

90 | 6

1.46 ГБ

В этой теме нет новых непрочитанных сообщений. Как поймать перо Жар-Птицы (2013) BDRip 720p от New-Team | лицензия

33 | 3

2.61 ГБ

В этой теме нет новых непрочитанных сообщений. Как поймать перо Жар-Птицы (2013) BDRip 1080p от New-Team | лицензия

107 | 7

4.37 ГБ

В этой теме нет новых непрочитанных сообщений. Как поймать перо Жар-Птицы (2013) DVDRip от New-Team | лицензия

1513 | 43

1.13 ГБ

В этой теме нет новых непрочитанных сообщений. Как поймать перо Жар-Птицы (2013) DVDRip от New-Team | Лицензия

165 | 10

744.82 МБ

В этой теме нет новых непрочитанных сообщений. Как поймать перо Жар-Птицы (2013) DVD5 R5 от New-Team | Лицензия

24 | 3

3.53 ГБ




Вы не можете начинать темы
Вы не можете отвечать на сообщения
Вы не можете редактировать свои сообщения
Вы не можете удалять свои сообщения
Вы не можете добавлять вложения

Перейти:  
Для Мосгорсуда, Роскомнадзора и рекламодателей: mosgorsud-torrent[собачка]yandex.ru
 Вход
ppkBB3cker v.2 © 2008-2014 @ PPK
[ Time : 0.043s | 16 Queries | GZIP : Off ]

Торрент трекер RUTOR.IN, Не можете зайти на rutor.org? Какой новый адрес рутор? Какое зеркало рутор? Не работает rutor.org и зеркала? Тогда наш торрент специально для вас. Rutor.in неофициальное зеркало rutor. В случае если у Вас заблокирован rutor или вдруг Вы не можете на него зайти, то Вы без труда сможете скачать бесплатно и без рекламы последние новинки кино, игр, сериалов и прочего у нас, на Rutor.in. Не нужно использовать прокси, чтобы зайти на рутор, достаточно воспользоваться нашим ресурсом. Все новые фильмы, игры, сериалы, книги и музыка за 2013 и 2014 годы через торрент бесплатно. Скачивайте фильмы в хорошем качестве, игры для пк, xbox, playstation без регистрации. У нас вы найдете новые Зарубежные сериалы и Русские сериалы 2013, 2014, 2015 годов. Оставайтесь с нами, качайте любимые фильмы, игры, сериалы, книги и музыку.