img image001 image001 image001 image001 image001 image001 image001 image001 image001 image001 image001 image001 image001 image001 image001

Planets Sun Sun Sun
Статистика раздачи
Автор: PriZraK | Размер: 2.18 ГБ | Добавлен: 15 фев 2014
Раздают: 320    Качают: 17
Скачать торрент
Скачать торрент
Описание торрента

СообщениеДобавлено: 15 фев 2014 




Информация о фильме
Название: Как поймать перо Жар-Птицы
Год выхода: 2013
Жанр: мультфильм, фэнтези
Режиссер: Георгий Гитис, Вячеслав Плотников
В ролях: Михаил Озеров, Дмитрий Дюжев, Юлия Савичева, Андрей Леонов, Нонна Гришаева, Алексей Колган, Михаил Хрусталев, Анатолий Петров, Юлия Галдун, Владимир Горбунов

О фильме: Во исполнение воли царя Берендея, младший сын его Иван отправляется на поиски диковинной Жар-птицы. В поисках удачи Ивана Царевича сопровождает верный друг и помощник — Серый Волк, который, обладает всевозможными навыками и всегда спешит на помощь простодушному Ивану. Героев ждут увлекательные и опасные приключения, козни коварных братьев Ивана и его судьбоносная встреча с Еленой Прекрасной. Юные зрители погрузятся в волшебный мир русской сказки, с её традициями и характерной эстетикой, причудливо перемежающейся с приметами современного жанрового кино. Ну, а родители оценят актуальный юмор и модную современную музыку, написанную специально для фильма популярными рок-музыкантами.



Выпущено: Кинокомпания CTB
Продолжительность: 01:08:41
Перевод: Оригинал (лицензия)

Файл
Кодек: x264
Качество: BDRip (источник: Blu-ray Disc)
Видео: 1920x1080 (16:9), 24 fps, 4100 kbps
Аудио: AC-3, 6 ch, 448 kbps
Скачать: сэмпл

Скриншоты

Общее
Уникальный идентификатор : 203929600952263259461061619053640554434 (0x996B6999BCAB9E698F104387BD9817C2)
Полное имя : Kak.poymat.pero.Zhar-Ptitsy.2013.BDRip.1080p.Rus.mkv
Формат : Matroska
Версия формата : Version 2
Размер файла : 2,18 Гбайт
Продолжительность : 1 ч. 8 м.
Общий поток : 4550 Кбит/сек
Название фильма : Как поймать перо Жар-Птицы (2013)
Дата кодирования : UTC 2013-11-30 13:37:06
Программа кодирования : mkvmerge v5.8.0 ('No Sleep / Pillow') built on Sep 2 2012 15:37:04
Библиотека кодирования : libebml v1.2.3 + libmatroska v1.3.0

Видео
Идентификатор : 1
Формат : AVC
Формат/Информация : Advanced Video Codec
Профиль формата : High@L4.1
Параметр CABAC формата : Да
Параметр ReFrames формата : 4 кадра
Идентификатор кодека : V_MPEG4/ISO/AVC
Продолжительность : 1 ч. 8 м.
Битрейт : 4100 Кбит/сек
Ширина : 1920 пикселей
Высота : 1080 пикселей
Соотношение сторон : 16:9
Частота кадров : 24,000 кадра/сек
Цветовое пространство : YUV
Субдискретизация насыщенности : 4:2:0
Битовая глубина : 8 бит
Тип развёртки : Прогрессивная
Бит/(Пиксели*Кадры) : 0.082
Размер потока : 1,92 Гбайт (88%)
Заголовок : Release by AlexKa
Библиотека кодирования : x264 core 140 r2377 1ca7bb9
Настройки программы : cabac=1 / ref=4 / deblock=1:0:0 / analyse=0x3:0x133 / me=umh / subme=11 / psy=1 / psy_rd=1.00:0.00 / mixed_ref=1 / me_range=32 / chroma_me=1 / trellis=2 / 8x8dct=1 / cqm=0 / deadzone=21,11 / fast_pskip=0 / chroma_qp_offset=-2 / threads=12 / lookahead_threads=3 / sliced_threads=0 / nr=0 / decimate=1 / interlaced=0 / bluray_compat=0 / constrained_intra=0 / bframes=10 / b_pyramid=2 / b_adapt=2 / b_bias=0 / direct=3 / weightb=1 / open_gop=0 / weightp=2 / keyint=240 / keyint_min=24 / scenecut=40 / intra_refresh=0 / rc_lookahead=60 / rc=2pass / mbtree=1 / bitrate=4100 / ratetol=1.0 / qcomp=0.60 / qpmin=0 / qpmax=69 / qpstep=4 / cplxblur=20.0 / qblur=0.5 / ip_ratio=1.40 / aq=1:1.00
Язык : Russian

Аудио
Идентификатор : 2
Формат : AC-3
Формат/Информация : Audio Coding 3
Расширение режима : CM (complete main)
Идентификатор кодека : A_AC3
Продолжительность : 1 ч. 8 м.
Вид битрейта : Постоянный
Битрейт : 448 Кбит/сек
Каналы : 6 каналов
Расположение каналов : Front: L C R, Side: L R, LFE
Частота : 48,0 КГц
Битовая глубина : 16 бит
Метод сжатия : С потерями
Размер потока : 220 Мбайт (10%)
Заголовок : Rus
Язык : Russian

Меню
00:00:00.000 : :Chapter 01
00:08:01.625 : :Chapter 02
00:17:43.166 : :Chapter 03
00:25:37.250 : :Chapter 04
00:34:31.916 : :Chapter 05
00:42:31.416 : :Chapter 06
00:50:48.208 : :Chapter 07
00:59:22.708 : :Chapter 08
x264 [info]: frame I:996 Avg QP:10.01 size:208636
x264 [info]: frame P:29353 Avg QP:14.98 size: 38323
x264 [info]: frame B:68544 Avg QP:17.75 size: 11368
x264 [info]: consecutive B-frames: 7.3% 8.2% 15.4% 32.1% 12.1% 15.5% 3.0% 1.6% 1.7% 0.9% 2.2%



   Похожие торренты   Торрент   Размер 
В этой теме нет новых непрочитанных сообщений. Как поймать перо Жар-Птицы (2013) BDRip 1080p от New-Team | лицензия

121 | 9

4.37 ГБ

В этой теме нет новых непрочитанных сообщений. Как поймать перо Жар-Птицы (2013) BDRip-HEVC 1080p от FREEISLAND

112 | 5

1.38 ГБ

В этой теме нет новых непрочитанных сообщений. Как поймать перо Жар-Птицы (2013) BDRip 1080p от Killbrain and Scarabey | Лицензия

1196 | 42

2.8 ГБ

В этой теме нет новых непрочитанных сообщений. Как поймать перо Жар-Птицы (2013) Blu-ray 1080p от HDCLUB и New-Team | Лицензия

17 | 4

11.25 ГБ

В этой теме нет новых непрочитанных сообщений. Как поймать перо Жар-Птицы (2013) BDRemux 1080p от New-Team | Лицензия

34 | 5

10.53 ГБ

В этой теме нет новых непрочитанных сообщений. Как поймать перо Жар-Птицы (2013) BDRip-AVC от New-Team | лицензия

90 | 6

1.46 ГБ

В этой теме нет новых непрочитанных сообщений. Как поймать перо Жар-Птицы (2013) BDRip от New-Team | лицензия

98 | 6

745.06 МБ




Вы не можете начинать темы
Вы не можете отвечать на сообщения
Вы не можете редактировать свои сообщения
Вы не можете удалять свои сообщения
Вы не можете добавлять вложения

Перейти:  
Для Мосгорсуда, Роскомнадзора и рекламодателей: mosgorsud-torrent[собачка]yandex.ru
 Вход
ppkBB3cker v.2 © 2008-2014 @ PPK
[ Time : 0.185s | 14 Queries | GZIP : Off ]

Торрент трекер RUTOR.IN, Не можете зайти на rutor.org? Какой новый адрес рутор? Какое зеркало рутор? Не работает rutor.org и зеркала? Тогда наш торрент специально для вас. Rutor.in неофициальное зеркало rutor. В случае если у Вас заблокирован rutor или вдруг Вы не можете на него зайти, то Вы без труда сможете скачать бесплатно и без рекламы последние новинки кино, игр, сериалов и прочего у нас, на Rutor.in. Не нужно использовать прокси, чтобы зайти на рутор, достаточно воспользоваться нашим ресурсом. Все новые фильмы, игры, сериалы, книги и музыка за 2013 и 2014 годы через торрент бесплатно. Скачивайте фильмы в хорошем качестве, игры для пк, xbox, playstation без регистрации. У нас вы найдете новые Зарубежные сериалы и Русские сериалы 2013, 2014, 2015 годов. Оставайтесь с нами, качайте любимые фильмы, игры, сериалы, книги и музыку.