img image001 image001 image001 image001 image001 image001 image001 image001 image001 image001 image001 image001 image001 image001 image001

Planets Sun Sun Sun
Статистика раздачи
Автор: PriZraK | Размер: 1.46 ГБ | Добавлен: 15 фев 2014, 01:59
Раздают: 385    Качают: 30
Скачать торрент
Скачать торрент
Описание торрента

СообщениеДобавлено: 15 фев 2014, 01:59 



АНОНСЫ МОИХ РИПОВ!

Утиные истории: Заветная лампа / DuckTales: The Movie - Treasure of the Lost Lamp

Страна: Франция, США
Жанр: мультфильм, фэнтези, комедия, приключения, семейный
Год выпуска: 1990
Продолжительность: 01:13:50
Перевод #1: Профессиональный (дублированный)
Перевод #2: Профессиональный (двухголосый закадровый) - Пётр Гланц и Татьяна Казакова
Перевод #3: Авторский (одноголосый закадровый) - А.Михалев
Субтитры: нет

Режиссер: Боб Хэчкок / Bob Hathcock

Роли озвучивали: Алан Янг (Scrooge, озвучка), Теренс МакГоверн (Launchpad, озвучка), Расси Тейлор (Huey / Dewey / Louie / Webby, озвучка), Ричард Либертини (Dijon, озвучка), Кристофер Ллойд (Merlock, озвучка), Джун Форэй (Mrs. Featherby, озвучка), Чак МакКанн (Duckworth, озвучка), Джоан Гербер (Mrs. Beakley, озвучка), Рип Тейлор (Genie, озвучка), Чарльз Адлер (дополнительные голоса, озвучка), Джек Эйнджел (дополнительные голоса, озвучка), Стив Бьюлен (дополнительные голоса, озвучка)

Роли дублировали: Валерий Кухарешин (Scrooge), Александр Лушин (Launchpad), Снежина Копрова (Huey Duck / Dewey Duck / Louie Duck), Марианна Мокшина (Webbigal 'Webby' Vanderquack), Максим Сергеев (Dijon), Станислав Концевич (Merlock; Duckworth), Татьяна Иванова (Mrs. Featherby), Елена Ставрогина (Mrs. Beakley), Михаил Хрусталев (Genie)

Описание: Запрыгивайте на верблюда, хватайте карту и приготовьтесь к захватывающему веселому приключению вместе с любимыми пернатыми друзьями Скруджем МакДаком, Хьюи, Дьюи, Луи и Веббигейл Вандеркваком!
Присоединяйтесь к команде Утиных Историй, пересекающих египетскую пустыню в бесстрашном поиске легендарных сокровищ Колли Бабы. Захватывающие моменты будут преследовать главных героев на каждом шагу, по мере приближения к сказочным сокровищам, а злой маг Мерлок будет идти по пятам. Но смелые утки и не могли предположить, что вместе с сокровищами найдут волшебную лампу с настоящим джином, исполняющим желания!
Наполненный весельем, приключениями и обожаемыми героями, фильм «Утиные истории: Заветная лампа» - истинная классика студии Disney, которой насладится вся Ваша семья!



Качество: HDRip - Исходник WEB-DL 1080p
Формат: AVI
Видео кодек: XviD
Аудио кодек: AC3
Видео: 720x432 (1.67:1), 23.976 fps, XviD build 73 ~2239 kbps avg, 0.30 bit/pixel
Аудио #1: 48 kHz, AC3 Dolby Digital, 2/0 (L,R) ch, ~192 kbps | DUB
Аудио #2: 48 kHz, AC3 Dolby Digital, 2/0 (L,R) ch, ~192 kbps | DVO
Аудио #3: 48 kHz, AC3 Dolby Digital, 2/0 (L,R) ch, ~192 kbps | AVO

Раздача от:


D:Мои рипыDuckTales.The Movie.Treasure.of.the.Lost.Lamp.1990.dexter_lex.avi
General
Complete name : D:Мои рипыDuckTales.The Movie.Treasure.of.the.Lost.Lamp.1990.dexter_lex.avi
Format : AVI
Format/Info : Audio Video Interleave
File size : 1.46 GiB
Duration : 1h 13mn
Overall bit rate : 2 835 Kbps
Writing application : VirtualDubMod 1.5.10.3 | www.virtualdub-fr.org || (build 2550/release)
Writing library : VirtualDubMod build 2550/release
Video #0
ID : 0
Format : MPEG-4 Visual
Format profile : Advanced Simple@L5
Format settings, BVOP : 1
Format settings, QPel : No
Format settings, GMC : No warppoints
Format settings, Matrix : Custom
Codec ID : XVID
Codec ID/Hint : XviD
Duration : 1h 13mn
Bit rate : 2 240 Kbps
Width : 720 pixels
Height : 432 pixels
Display aspect ratio : 1.667
Frame rate : 23.976 fps
Color space : YUV
Chroma subsampling : 4:2:0
Bit depth : 8 bits
Scan type : Progressive
Compression mode : Lossy
Bits/(Pixel*Frame) : 0.300
Stream size : 1.16 GiB (79%)
Writing library : XviD 73
Audio #1
ID : 1
Format : AC-3
Format/Info : Audio Coding 3
Format profile : Dolby Digital
Mode extension : CM (complete main)
Codec ID : 2000
Duration : 1h 13mn
Bit rate mode : Constant
Bit rate : 192 Kbps
Channel(s) : 2 channels
Channel positions : Front: L R
Sampling rate : 48.0 KHz
Bit depth : 16 bits
Compression mode : Lossy
Stream size : 101 MiB (7%)
Alignment : Split accross interleaves
Interleave, duration : 42 ms (1.00 video frame)
Interleave, preload duration : 500 ms
Audio #2
ID : 2
Format : AC-3
Format/Info : Audio Coding 3
Format profile : Dolby Digital
Mode extension : CM (complete main)
Codec ID : 2000
Duration : 1h 13mn
Bit rate mode : Constant
Bit rate : 192 Kbps
Channel(s) : 2 channels
Channel positions : Front: L R
Sampling rate : 48.0 KHz
Bit depth : 16 bits
Compression mode : Lossy
Stream size : 101 MiB (7%)
Alignment : Split accross interleaves
Interleave, duration : 42 ms (1.00 video frame)
Interleave, preload duration : 500 ms
Audio #3
ID : 3
Format : AC-3
Format/Info : Audio Coding 3
Format profile : Dolby Digital
Mode extension : CM (complete main)
Codec ID : 2000
Duration : 1h 13mn
Bit rate mode : Constant
Bit rate : 192 Kbps
Channel(s) : 2 channels
Channel positions : Front: L R
Sampling rate : 48.0 KHz
Bit depth : 16 bits
Compression mode : Lossy
Stream size : 101 MiB (7%)
Alignment : Split accross interleaves
Interleave, duration : 42 ms (1.00 video frame)
Interleave, preload duration : 500 ms



   Похожие торренты   Торрент   Размер 
В этой теме нет новых непрочитанных сообщений. Утиные истории: Заветная лампа / DuckTales: The Movie - Treasure of the Lost Lamp (1990) HDRip от New-Team

112 | 21

743.08 МБ

В этой теме нет новых непрочитанных сообщений. Утиные истории: Заветная лампа / DuckTales: The Movie - Treasure of the Lost Lamp (1990) WEB-DL 1080p | D, P2, A

67 | 7

3.64 ГБ

В этой теме нет новых непрочитанных сообщений. Утиные истории: Заветная лампа / DuckTales: The Movie - Treasure of the Lost Lamp (1990) WEB-DL 720p от HDClub | D, P2, A

227 | 21

3.06 ГБ

В этой теме нет новых непрочитанных сообщений. Утиные истории: Заветная лампа / DuckTales: Treasure of the Lost Lamp (1990) DVDRip

72 | 10

1.37 ГБ

В этой теме нет новых непрочитанных сообщений. Утиные истории: Заветная лампа / DuckTales: Treasure of the Lost Lamp (1990) HDTVRip

10 | 3

741.92 МБ

В этой теме нет новых непрочитанных сообщений. Утиные истории: Заветная лампа / DuckTales: Treasure of the Lost Lamp (1990) HDTVRip

77 | 8

4.15 ГБ

В этой теме нет новых непрочитанных сообщений. Утиные истории / DuckTales [001-100] (1987-1990) WEBDLRip-AVC | D

131 | 199

24.27 ГБ




Вы не можете начинать темы
Вы не можете отвечать на сообщения
Вы не можете редактировать свои сообщения
Вы не можете удалять свои сообщения
Вы не можете добавлять вложения

Перейти:  
Для Мосгорсуда, Роскомнадзора и рекламодателей: mosgorsud-torrent[собачка]yandex.ru
Настройки
ppkBB3cker v.2 © 2008-2014 @ PPK
[ Time : 0.017s | 16 Queries | GZIP : Off ]
CGP [Extreme] output time : 0.00084s | 0 Queries | GZIP : Off

Торрент трекер RUTOR.IN, Не можете зайти на rutor.org? Какой новый адрес рутор? Какое зеркало рутор? Не работает rutor.org и зеркала? Тогда наш торрент специально для вас. Rutor.in неофициальное зеркало rutor. В случае если у Вас заблокирован rutor или вдруг Вы не можете на него зайти, то Вы без труда сможете скачать бесплатно и без рекламы последние новинки кино, игр, сериалов и прочего у нас, на Rutor.in. Не нужно использовать прокси, чтобы зайти на рутор, достаточно воспользоваться нашим ресурсом. Все новые фильмы, игры, сериалы, книги и музыка за 2013 и 2014 годы через торрент бесплатно. Скачивайте фильмы в хорошем качестве, игры для пк, xbox, playstation без регистрации. У нас вы найдете новые Зарубежные сериалы и Русские сериалы 2013, 2014, 2015 годов. Оставайтесь с нами, качайте любимые фильмы, игры, сериалы, книги и музыку.