img image001 image001 image001 image001 image001 image001 image001 image001 image001 image001 image001 image001 image001 image001 image001

Planets Sun Sun Sun
Статистика раздачи
Автор: PriZraK | Размер: 1.38 ГБ | Добавлен: 15 фев 2014
Раздают: 112    Качают: 5
Скачать торрент
Скачать торрент
Описание торрента

СообщениеДобавлено: 15 фев 2014 


Как поймать перо Жар-Птицы
(2013)
BDRip 1080p [HEVC] от FREEISLAND




Год выпуска: 2013
Страна: Россия
Жанр: мультфильм, фэнтези
Продолжительность: 1 ч. 8 м. 40 с.
Перевод: Не требуется

Режиссер: Георгий Гитис, Вячеслав Плотников
Продюссер: Сергей Сельянов, Александр Лигай, Сергей Рапопорт
Сценарий: Ирина Мизрахи
Композитор: Михаил Чертищев
Студия: Dereza, Инлэй Фильм, Кинокомпания CTB, Руссобит-М, Wizart Film

Релиз на Blu-Ray: 3 декабря 2013, «Lizard Cinema Trade»
Премьера в мире: 24 октября 2013



Роли озвучивали:
Михаил Озеров - Иван, озвучка, Дмитрий Дюжев - Волк, озвучка, Юлия Савичева - Елена, озвучка, Андрей Леонов - царь Берендей, озвучка, Нонна Гришаева - Кикимора, озвучка, Алексей Колган - царь Долмат / братья Степан и Ерема, озвучка, Михаил Хрусталев - конь Златогривый / конь Яша, озвучка, Анатолий Петров - царь Афон, озвучка, Юлия Галдун - Вороненок, озвучка, Владимир Горбунов - Ворон, озвучка, Дмитрий Поляновский - Жар-птица / белки, озвучка, Валентина Рычагова - читает текст, озвучка

Описание:
Во исполнение воли царя Берендея, младший сын его Иван отправляется на поиски диковинной Жар-птицы. В поисках удачи Ивана Царевича сопровождает верный друг и помощник — Серый Волк, который, обладает всевозможными навыками и всегда спешит на помощь простодушному Ивану. Героев ждут увлекательные и опасные приключения, козни коварных братьев Ивана и его судьбоносная встреча с Еленой Прекрасной. Юные зрители погрузятся в волшебный мир русской сказки, с её традициями и характерной эстетикой, причудливо перемежающейся с приметами современного жанрового кино. Ну, а родители оценят актуальный юмор и модную современную музыку, написанную специально для фильма популярными рок-музыкантами.

Внимание!

Рип в фомате HEVC, в настоящее время не поддерживается аппаратными проигрывателями.
Для корректного воспроизведения может потребоваться обновление ПО.
Владельцам несовместимого железа просьба не беспокоить, на трекере есть альтернативные релизы.


Качество: BDRip 1080p HEVC (SSIM: 0.993)
Исходник: Blu-Ray Disc
Контейнер: MKV
Видео кодек: x265
Аудио кодек: AC-3
Видео: HEVC at 2426 Кбит/сек, 1920 x 1080 (1.778) at 24.000 fps
Аудио: AC-3 at 448 Кбит/сек, 6 каналов, 48,0 КГц
Субтитры: нет
Навигация по главам: есть


Общее
Уникальный идентификатор : 230836796550464716810134142850221059940 (0xADA98CC48FD807BB9CA99705B27DAF64)
Полное имя : Как поймать перо Жар-Птицы (2013) BDRip-HEVC 1080p by_F.HD.mkv
Формат : Matroska
Версия формата : Version 4 / Version 2
Размер файла : 1,38 Гбайт
Продолжительность : 1 ч. 8 м.
Общий поток : 2877 Кбит/сек
Название фильма : релиз от FREEISLAND.ORG
Дата кодирования : UTC 2013-12-02 11:28:16
Программа кодирования : mkvmerge v6.5.0 ('Isn't she lovely') built on Oct 20 2013 12:50:05
Библиотека кодирования : libebml v1.3.0 + libmatroska v1.4.1

Видео
Идентификатор : 1
Формат : HEVC
Формат/Информация : High Efficiency Video Coding
Идентификатор кодека : V_MPEGH/ISO/HEVC
Продолжительность : 1 ч. 8 м.
Битрейт : 2372 Кбит/сек
Ширина : 1920 пикселей
Высота : 1080 пикселей
Соотношение сторон : 16:9
Режим частоты кадров : Постоянный
Частота кадров : 24,000 кадра/сек
Бит/(Пиксели*Кадры) : 0.048
Размер потока : 1,14 Гбайт (82%)
Default : Да
Forced : Нет

Аудио
Идентификатор : 2
Формат : AC-3
Формат/Информация : Audio Coding 3
Расширение режима : CM (complete main)
Параметр Endianness формата : Big
Идентификатор кодека : A_AC3
Продолжительность : 1 ч. 8 м.
Вид битрейта : Постоянный
Битрейт : 448 Кбит/сек
Каналы : 6 каналов
Расположение каналов : Front: L C R, Side: L R, LFE
Частота : 48,0 КГц
Битовая глубина : 16 бит
Метод сжатия : С потерями
Размер потока : 220 Мбайт (16%)
Язык : Russian
Default : Да
Forced : Нет

Меню
00:00:00.000 : :01
00:08:01.625 : :02
00:17:43.166 : :03
00:25:37.250 : :04
00:34:31.916 : :05
00:42:31.416 : :06
00:50:48.208 : :07
00:59:22.708 : :08




x265 [info]: HEVC encoder version 0.5+618-2786f9e92560
x265 [info]: build info [Windows][MSVC 1800][64 bit] 8bpp
x265 [info]: Main profile, Level-6.2 (Main tier)
x265 [info]: WPP streams / pool / frames : 17 / 8 / 4
x265 [info]: CU size : 64
x265 [info]: Max RQT depth inter / intra : 1 / 1
x265 [info]: ME / range / subpel / merge : umh / 32 / 5 / 3
x265 [info]: Keyframe min / max : 24 / 24
x265 [info]: Rate Control : CRF-20.000000
x265 [info]: RDpenalty : 1
x265 [info]: Lookahead / bframes / badapt : 40 / 6 / 2
x265 [info]: b-pyramid / weightp / ref : 1 / 1 / 4
x265 [info]: tools: rect amp esd rd=2 lft sao-lcu sign-hide aq-mode aq-strength=0.82








Релиз от:


Что такое HEVC


H.265/HEVC (High Efficiency Video Coding) - это новый стандарт кодирования видео.
Стандарт H.265/HEVC является логическим продолжением стандарта H.264/AVC (Advanced Video Coding), и харакетризуется более эффективными алгоритмами сжатия, а также поддержкой высокого разрешения вплоть до 8K UHD (8192x4320).
Первая версия стандарта H.265 была опубликована в начале 2013 года.
Как смотреть HEVC


Любителям решения из коробки - установить последнюю версию Media Player Classic - Black Edition (MPC-BE) или VLC media player

Любителям WMP и других плееров, использующих по умолчанию для воспроизведения системные кодеки+сплитеры - установить K-Lite Codec Pack версии 10.1.0 и выше.

Любимые плееры, не использующии по умолчанию для воспроизведения системные кодеки+сплитеры, нужно перенастроить на использование оных.



   Похожие торренты   Торрент   Размер 
В этой теме нет новых непрочитанных сообщений. Как поймать перо Жар-Птицы (2013) BDRip 1080p

320 | 17

2.18 ГБ

В этой теме нет новых непрочитанных сообщений. Как поймать перо Жар-Птицы (2013) BDRip 1080p от New-Team | лицензия

107 | 7

4.37 ГБ

В этой теме нет новых непрочитанных сообщений. Как поймать перо Жар-Птицы (2013) BDRip 1080p от Killbrain and Scarabey | Лицензия

1234 | 43

2.8 ГБ

В этой теме нет новых непрочитанных сообщений. Как поймать перо Жар-Птицы (2013) BDRemux 1080p от New-Team | Лицензия

34 | 5

10.53 ГБ

В этой теме нет новых непрочитанных сообщений. Как поймать перо Жар-Птицы (2013) Blu-ray 1080p от HDCLUB и New-Team | Лицензия

15 | 3

11.25 ГБ

В этой теме нет новых непрочитанных сообщений. Как поймать перо Жар-Птицы (2013) BDRip от New-Team | лицензия

98 | 6

745.06 МБ

В этой теме нет новых непрочитанных сообщений. Как поймать перо Жар-Птицы (2013) BDRip от HQCLUB | Лицензия

551 | 18

1.09 ГБ




Вы не можете начинать темы
Вы не можете отвечать на сообщения
Вы не можете редактировать свои сообщения
Вы не можете удалять свои сообщения
Вы не можете добавлять вложения

Перейти:  
Для Мосгорсуда, Роскомнадзора и рекламодателей: mosgorsud-torrent[собачка]yandex.ru
 Вход
ppkBB3cker v.2 © 2008-2014 @ PPK
[ Time : 0.031s | 14 Queries | GZIP : Off ]

Торрент трекер RUTOR.IN, Не можете зайти на rutor.org? Какой новый адрес рутор? Какое зеркало рутор? Не работает rutor.org и зеркала? Тогда наш торрент специально для вас. Rutor.in неофициальное зеркало rutor. В случае если у Вас заблокирован rutor или вдруг Вы не можете на него зайти, то Вы без труда сможете скачать бесплатно и без рекламы последние новинки кино, игр, сериалов и прочего у нас, на Rutor.in. Не нужно использовать прокси, чтобы зайти на рутор, достаточно воспользоваться нашим ресурсом. Все новые фильмы, игры, сериалы, книги и музыка за 2013 и 2014 годы через торрент бесплатно. Скачивайте фильмы в хорошем качестве, игры для пк, xbox, playstation без регистрации. У нас вы найдете новые Зарубежные сериалы и Русские сериалы 2013, 2014, 2015 годов. Оставайтесь с нами, качайте любимые фильмы, игры, сериалы, книги и музыку.