img image001 image001 image001 image001 image001 image001 image001 image001 image001 image001 image001 image001 image001 image001 image001

Planets Sun Sun Sun
Статистика раздачи
Автор: PriZraK | Размер: 5.75 ГБ | Добавлен: 15 фев 2014
Раздают: 9    Качают: 2
Скачать торрент
Скачать торрент
Описание торрента

СообщениеДобавлено: 15 фев 2014 





Информация о фильме
Русское название: Джастин и рыцари доблести
Оригинальное название: Justin and the Knights of Valour
Год выхода: 2013
Жанр: Мультфильм, приключения, полнометражный
Режиссер: Мануэль Сисилия
Выпущено: Испания, Aliwood Mediterráneo Producciones, Kandor Graphics, Ono, Out Of The Box Feature
Продолжительность: 01:35:48
В ролях: Фредди Хаймор, Сирша Ронан, Марк Стронг, Дэвид Уоллиамс, Антонио Бандерас, Альфред Молина, Джули Уолтерс, Оливия Уильямс, Чарльз Дэнс, Руперт Эверетт

Перевод: Дублированный



Сюжет фильма

Действие мультфильма разворачивается в магическом мире, о котором мечтает каждый ребёнок. Джастин мечтает стать рыцарем, но на его пути появляется много препятствий бюрократического характера. Даже отец Джастина против рыцарства и хочет, чтобы сын стал придворным служащим. Тогда мальчик, обуреваемый желанием стать настоящим доблестным Рыцарем, сбегает из дома в поисках приключений. По дороге он знакомится с прекрасной девушкой — Талией, вдохновляющей его на новые подвиги, и встречает мудрых рыцарей-наставников, которые обучают его рыцарскому мастерству. Но хватит ли Джастину полученных знаний для того, чтобы справиться с угрозой, которая нависла над его Королевством? Сумеет ли мальчик преодолеть все препятствия и достичь своей мечты?



Файл
Качество: BDRip 1080p (исходник Blu-ray)
Видео: MPEG-4 AVC Video 1920x800, 7 949 кбит/с / 23,976 fps / High Profile 4.1 / 0.216 Bits/(Pixel*Frame)
Аудио 1: AC-3, 640 Кбит/сек, 6 канала(ов), 48,0 КГц -Дублированный
Чаптеры: есть
Субтитры: нет


Автор Рипа:







Format : Matroska
Format version : Version 2
File size : 5.75 GiB
Duration : 1h 35mn
Overall bit rate : 8 590 Kbps
Movie name : Джастин и рыцари доблести.(2013).BDRip.1080p.[denis100]
Encoded date : UTC 2013-12-04 07:30:17
Writing application : mkvmerge v5.8.0 ('No Sleep / Pillow') built on Sep 2 2012 15:37:04
Writing library : libebml v1.2.3 + libmatroska v1.3.0

Video
ID : 1
Format : AVC
Format/Info : Advanced Video Codec
Format profile : High@L4.1
Format settings, CABAC : Yes
Format settings, ReFrames : 5 frames
Codec ID : V_MPEG4/ISO/AVC
Duration : 1h 35mn
Bit rate : 7 949 Kbps
Width : 1 920 pixels
Height : 800 pixels
Display aspect ratio : 2.40:1
Frame rate mode : Constant
Frame rate : 23.976 fps
Color space : YUV
Chroma subsampling : 4:2:0
Bit depth : 8 bits
Scan type : Progressive
Bits/(Pixel*Frame) : 0.216
Stream size : 5.21 GiB (91%)
Title : Джастин и рыцари доблести.(2013).BDRip.1080p.[denis100]
Writing library : x264 core 140 r2377 1ca7bb9
Encoding settings : cabac=1 / ref=5 / deblock=1:-3:-3 / analyse=0x3:0x133 / me=umh / subme=11 / psy=1 / psy_rd=1.00:0.10 / mixed_ref=1 / me_range=32 / chroma_me=1 / trellis=2 / 8x8dct=1 / cqm=0 / deadzone=21,11 / fast_pskip=0 / chroma_qp_offset=-3 / threads=6 / lookahead_threads=1 / sliced_threads=0 / nr=0 / decimate=0 / interlaced=0 / bluray_compat=0 / constrained_intra=0 / bframes=6 / b_pyramid=2 / b_adapt=2 / b_bias=0 / direct=3 / weightb=1 / open_gop=0 / weightp=2 / keyint=240 / keyint_min=23 / scenecut=40 / intra_refresh=0 / rc=2pass / mbtree=0 / bitrate=7949 / ratetol=1.0 / qcomp=0.60 / qpmin=0 / qpmax=69 / qpstep=4 / cplxblur=20.0 / qblur=0.5 / ip_ratio=1.40 / pb_ratio=1.30 / aq=1:0.90
Language : English
Default : Yes
Forced : No

Audio
ID : 2
Format : AC-3
Format/Info : Audio Coding 3
Mode extension : CM (complete main)
Format settings, Endianness : Big
Codec ID : A_AC3
Duration : 1h 35mn
Bit rate mode : Constant
Bit rate : 640 Kbps
Channel count : 6 channels
Channel positions : Front: L C R, Side: L R, LFE
Sampling rate : 48.0 KHz
Bit depth : 16 bits
Compression mode : Lossy
Stream size : 439 MiB (7%)
Title : Дублированный
Language : Russian
Default : Yes
Forced : No




   Похожие торренты   Торрент   Размер 
В этой теме нет новых непрочитанных сообщений. Джастин и рыцари доблести / Justin and the Knights of Valour (2013) BDRip 1080p от DHT-Movies | Лицензия

55 | 9

4.23 ГБ

В этой теме нет новых непрочитанных сообщений. Джастин и рыцари доблести / Justin and the Knights of Valour (2013) BDRip-HEVC 1080p от FREEISLAND

22 | 7

2.31 ГБ

В этой теме нет новых непрочитанных сообщений. Джастин и рыцари доблести / Justin and the Knights of Valour (2013) BDRip 1080p от Ash61 | 3D-Video | halfOU

35 | 5

4.3 ГБ

В этой теме нет новых непрочитанных сообщений. Джастин и рыцари доблести / Justin and the Knights of Valour (2013) BDRip от HQCLUB

490 | 51

1.45 ГБ

В этой теме нет новых непрочитанных сообщений. Джастин и рыцари доблести / Justin and the Knights of Valour (2013) BDRemux 1080p от ExKinoRay | Лицензия

20 | 7

15.18 ГБ

В этой теме нет новых непрочитанных сообщений. Джастин и рыцари доблести / Justin and the Knights of Valour (2013) BDRip 1080p от Ash61 | 3D-Video | halfOU | German Transfer

149 | 8

5.22 ГБ

В этой теме нет новых непрочитанных сообщений. Джастин и рыцари доблести / Justin and the Knights of Valour (2013) BDRip от New-Team | D | Лицензия

142 | 3

1.45 ГБ




Вы не можете начинать темы
Вы не можете отвечать на сообщения
Вы не можете редактировать свои сообщения
Вы не можете удалять свои сообщения
Вы не можете добавлять вложения

Перейти:  
Для Мосгорсуда, Роскомнадзора и рекламодателей: mosgorsud-torrent[собачка]yandex.ru
 Вход
ppkBB3cker v.2 © 2008-2014 @ PPK
[ Time : 0.019s | 14 Queries | GZIP : On ]

Торрент трекер RUTOR.IN, Не можете зайти на rutor.org? Какой новый адрес рутор? Какое зеркало рутор? Не работает rutor.org и зеркала? Тогда наш торрент специально для вас. Rutor.in неофициальное зеркало rutor. В случае если у Вас заблокирован rutor или вдруг Вы не можете на него зайти, то Вы без труда сможете скачать бесплатно и без рекламы последние новинки кино, игр, сериалов и прочего у нас, на Rutor.in. Не нужно использовать прокси, чтобы зайти на рутор, достаточно воспользоваться нашим ресурсом. Все новые фильмы, игры, сериалы, книги и музыка за 2013 и 2014 годы через торрент бесплатно. Скачивайте фильмы в хорошем качестве, игры для пк, xbox, playstation без регистрации. У нас вы найдете новые Зарубежные сериалы и Русские сериалы 2013, 2014, 2015 годов. Оставайтесь с нами, качайте любимые фильмы, игры, сериалы, книги и музыку.