img image001 image001 image001 image001 image001 image001 image001 image001 image001 image001 image001 image001 image001 image001 image001

Planets Sun Sun Sun
Статистика раздачи
Автор: PriZraK | Размер: 1.46 ГБ | Добавлен: 15 фев 2014
Раздают: 68    Качают: 2
Скачать торрент
Скачать торрент
Описание торрента

СообщениеДобавлено: 15 фев 2014 


Страна: США
Жанр: мультфильм, фэнтези, семейный
Год выпуска: 2012
Продолжительность: серия ~ 00:21:30

Перевод: Профессиональный (полное дублирование)
Оригинальная аудиодорожка: английский
Cубтитры: нет

Режиссеры: Джэми Митчелл, Сэм Ригел, Ларри Лэйчлитер / Jamie Mitchell, Sam Riegel, Larry Leichliter

Роли озвучивали: Эриель Винтер, Дарси Роуз Бернс, Зак Каллисон, Сара Рамирес, Тим Ганн, Трэвис Уиллингэм, Коко Грэйсон, Уэйн Брэди, Джим Каммингс, Джесс Харнелл...

Описание:
Маленькая девочка, которая скоро станет принцессой, снова приглашает в гости своих лучших друзей! Тебя ждут музыка, веселье и волшебство!
Какая девочка не мечтает однажды проснуться принцессой! И прежде чем София сможет занять законное место на троне, вас ждут удивительные приключения: представление в зачарованном цирке, знакомство с ручным дракончиком и полет на волшебном ковре-самолете вместе с Софией и Эмбер! Но когда маленькие верные друзья сбиваются с пути в лазурной вышине, на помощь к ним приходит особый гость - принцесса Жасмин, которая расскажет всем маленьким принцессам, как не бояться приключений, быть сильной и верить в себя. Чудесные песни, незабываемые герои и замечательные сюрпризы.
"София Прекрасная: Как стать принцессой" открывает дверь в дивный мир, полный доброты, взаимовыручки и дружбы!





Исходник: DVD9 R5
Тип релиза: DVDRip
Контейнер: AVI

Видео: 720х400, (16:9), 25 fps, XviD ~ 1565 kbps, 0.217 bit/pixel
Аудио: 48 kHz, Dolby AC3, 2 ch, 192.00 kbps Русский DUB
Аудио: 48 kHz, Dolby AC3, 2 ch, 192.00 kbps Английский

Раздача от:
01. Провинились по королевски / A Royal Mess / эпизод 5
02. Застенчивая принцесса / The Shy Princess / эпизод 6
03. Кролик чемпион / Blue Ribbon Bunny / эпизод 7
04. Экзамен для принцесс / The Princess Test / эпизод 8
05. Вдвоём в Тангу / Two to Tangu / эпизод 12

Общее
Полное имя : Sofiya.Prekrasnaya.2012.DVDRip_[New-team]_by_AVP_Studio.avi
Формат : AVI
Формат/Информация : Audio Video Interleave
Размер файла : 297 Мбайт
Продолжительность : 21 м.
Общий поток : 1964 Кбит/сек
Программа кодирования : VirtualDubModRus 1.5.10.2 (build 2542/release)
Библиотека кодирования : VirtualDubMod build 2542/release

Видео
Идентификатор : 0
Формат : MPEG-4 Visual
Профиль формата : Advanced Simple@L5
Параметр BVOP формата : 1
Параметр QPel формата : Нет
Параметр GMC формата : Без точки перехода
Параметр матрицы формата : Выборочная
Идентификатор кодека : XVID
Идентификатор кодека/Подсказка : XviD
Продолжительность : 21 м.
Битрейт : 1565 Кбит/сек
Ширина : 720 пикселей
Высота : 400 пикселей
Соотношение сторон : 16:9
Частота кадров : 25,000 кадров/сек
Цветовое пространство : YUV
Субдискретизация насыщенности : 4:2:0
Битовая глубина : 8 бит
Тип развёртки : Прогрессивная
Метод сжатия : С потерями
Бит/(Пиксели*Кадры) : 0.217
Размер потока : 237 Мбайт (80%)
Библиотека кодирования : XviD 73

Аудио #1
Идентификатор : 1
Формат : AC-3
Формат/Информация : Audio Coding 3
Профиль формата : Dolby Digital
Расширение режима : CM (complete main)
Идентификатор кодека : 2000
Продолжительность : 21 м.
Вид битрейта : Постоянный
Битрейт : 192 Кбит/сек
Каналы : 2 канала
Расположение каналов : Front: L R
Частота : 48,0 КГц
Битовая глубина : 16 бит
Метод сжатия : С потерями
Размер потока : 29,1 Мбайт (10%)
Выравнивание : Разделение по промежуткам
Продолжительность промежутка : 40 мс. (1,00 видеокадр)
Время предзагрузки промежутка : 500 мс.

Аудио #2
Идентификатор : 2
Формат : AC-3
Формат/Информация : Audio Coding 3
Профиль формата : Dolby Digital
Расширение режима : CM (complete main)
Идентификатор кодека : 2000
Продолжительность : 21 м.
Вид битрейта : Постоянный
Битрейт : 192 Кбит/сек
Каналы : 2 канала
Расположение каналов : Front: L R
Частота : 48,0 КГц
Битовая глубина : 16 бит
Метод сжатия : С потерями
Размер потока : 29,1 Мбайт (10%)
Выравнивание : Разделение по промежуткам
Продолжительность промежутка : 40 мс. (1,00 видеокадр)
Время предзагрузки промежутка : 500 мс





   Похожие торренты   Торрент   Размер 
В этой теме нет новых непрочитанных сообщений. София Прекрасная / Sofia the First [01x01-05] (2012) DVDRip-AVC от New-Team

55 | 6

1.46 ГБ

В этой теме нет новых непрочитанных сообщений. София Прекрасная / Sofia the First [01x01-09 из 24] (2012) DVDRip-AVC от New-Team

38 | 21

2.91 ГБ

В этой теме нет новых непрочитанных сообщений. София Прекрасная / Sofia the First [01x01-09] (2012-2013) DVDRip от New-Team

75 | 30

2.93 ГБ

В этой теме нет новых непрочитанных сообщений. София Прекрасная / Sofia the First [01x01-20, 22, 23] (2012) DVDRip | D

279 | 306

6.71 ГБ

В этой теме нет новых непрочитанных сообщений. София Прекрасная / Sofia the First [01x01-18] (2012) DVDRip | D

259 | 107

5.22 ГБ

В этой теме нет новых непрочитанных сообщений. София Прекрасная / Sofia the First [01x01-20] (2012) DVDRip | D

429 | 117

5.8 ГБ

В этой теме нет новых непрочитанных сообщений. София Прекрасная: История принцессы / Sofia the First: Once Upon a Princess (2012) DVDRip от New-Team

152 | 11

746.56 МБ




Вы не можете начинать темы
Вы не можете отвечать на сообщения
Вы не можете редактировать свои сообщения
Вы не можете удалять свои сообщения
Вы не можете добавлять вложения

Перейти:  
Для Мосгорсуда, Роскомнадзора и рекламодателей: mosgorsud-torrent[собачка]yandex.ru
 Вход
ppkBB3cker v.2 © 2008-2014 @ PPK
[ Time : 0.021s | 15 Queries | GZIP : Off ]

Торрент трекер RUTOR.IN, Не можете зайти на rutor.org? Какой новый адрес рутор? Какое зеркало рутор? Не работает rutor.org и зеркала? Тогда наш торрент специально для вас. Rutor.in неофициальное зеркало rutor. В случае если у Вас заблокирован rutor или вдруг Вы не можете на него зайти, то Вы без труда сможете скачать бесплатно и без рекламы последние новинки кино, игр, сериалов и прочего у нас, на Rutor.in. Не нужно использовать прокси, чтобы зайти на рутор, достаточно воспользоваться нашим ресурсом. Все новые фильмы, игры, сериалы, книги и музыка за 2013 и 2014 годы через торрент бесплатно. Скачивайте фильмы в хорошем качестве, игры для пк, xbox, playstation без регистрации. У нас вы найдете новые Зарубежные сериалы и Русские сериалы 2013, 2014, 2015 годов. Оставайтесь с нами, качайте любимые фильмы, игры, сериалы, книги и музыку.