img image001 image001 image001 image001 image001 image001 image001 image001 image001 image001 image001 image001 image001 image001 image001

Planets Sun Sun Sun
Статистика раздачи
Автор: PriZraK | Размер: 669.02 МБ | Добавлен: 15 фев 2014
Раздают: 125    Качают: 4
Скачать торрент
Скачать торрент
Описание торрента

СообщениеДобавлено: 15 фев 2014 




Информация о фильме
Название: Рождественская история Микки
Оригинальное название: Mickey's Christmas Carol
Год выхода: 1983
Жанр: Мультфильм, короткометражка, фэнтези, семейный
Режиссер: Барни Мэттинсон
В ролях: Алан Янг, Уэйн Оллвэйн, Хэл Смит, Уилл Райан, Эдди Кэрролл, Патриция Паррис, Дик Биллингсли, Кларенс Нэш

О фильме:
Мультипликационный фильм по мотивам классической истории Чарльза Диккенса «Рождественская песнь», в котором собрались почти все основные диснеевские персонажи, включая Микки Мауса, отстутствовавшего в диснеевских фильмах около трех десятков лет. Скряга Скрудж являет миру все худшие черты своего характера. Однако после того, как к нему во сне являются духи прошлого, нынешнего и будущего Рождества, он радикально перевоспитывается. Праздник для всей семьи. - М. Иванов – ВидеоГид



Страна: США, Walt Disney Pictures
Продолжительность: 00:25:39
Перевод: Дублированный, авторский
Дата релиза: 03.12.2013

Файл
Кодек: H.264
Качество: HDRip (AVC)
Видео: MPEG-4 AVC, 2939 Кбит/с, 1024x576
Звук:
Аудио №1: Русский (AC3, 2 ch, 192 Кбит/с) - Дублированный
Аудио №2: Русский (AC3, 2 ch, 192 Кбит/с) - Авторский одноголосый ( Ю.Живов)
Аудио №3: Русский (AC3, 2 ch, 320 Кбит/с)

Общее
Уникальный идентификатор : 181603954644319245726116014738103002188 (0x889FA640D6C43FB089C111C8A90EE44C)
Полное имя : E:Rozhdestvenskaja.istorija.Mikki.1983.x264.HDRip.(AVC).ExKinoRay.mkv
Формат : Matroska
Размер файла : 669 Мбайт
Продолжительность : 25 м.
Общий поток : 3645 Кбит/сек
Название фильма : Rozhdestvenskaja.istorija.Mikki.1983.x264.HDRip.(AVC).ExKinoRay
Дата кодирования : UTC 2013-12-04 15:29:31
Программа кодирования : mkvmerge v4.0.0 ('The Stars were mine') сборка от Jun 6 2010 16:18:42
Библиотека кодирования : libebml v1.0.0 + libmatroska v1.0.0

Видео
Идентификатор : 1
Формат : AVC
Формат/Информация : Advanced Video Codec
Профиль формата : High@L4.1
Параметр CABAC формата : Да
Параметр ReFrames формата : 8 кадров
Параметры GOP формата : M=9, N=24
Идентификатор кодека : V_MPEG4/ISO/AVC
Продолжительность : 25 м.
Битрейт : 2939 Кбит/сек
Ширина : 1024 пикс.
Высота : 576 пикс.
Соотношение сторон : 16:9
Частота кадров : 23,976 кадр/сек
Цветовое пространство : YUV
Подвыборка цветности : 4:2:0
Битовая глубина : 8 бит
Тип развёртки : Прогрессивная
Бит/(Пиксели*Кадры) : 0.208
Размер потока : 526 Мбайт (79%)
Заголовок : Rip by Enigma-Vladislav71
Библиотека кодирования : x264 core 125 r2208 d9d2288
Настройки программы : cabac=1 / ref=8 / deblock=1:-2:-2 / analyse=0x3:0x133 / me=umh / subme=11 / psy=1 / psy_rd=1.00:0.00 / mixed_ref=1 / me_range=32 / chroma_me=1 / trellis=2 / 8x8dct=1 / cqm=0 / deadzone=21,11 / fast_pskip=0 / chroma_qp_offset=-2 / threads=3 / lookahead_threads=1 / sliced_threads=0 / nr=0 / decimate=0 / interlaced=0 / bluray_compat=0 / constrained_intra=0 / bframes=8 / b_pyramid=2 / b_adapt=2 / b_bias=0 / direct=3 / weightb=1 / open_gop=0 / weightp=2 / keyint=240 / keyint_min=23 / scenecut=40 / intra_refresh=0 / rc=2pass / mbtree=0 / bitrate=2939 / ratetol=1.0 / qcomp=0.60 / qpmin=10 / qpmax=51 / qpstep=4 / cplxblur=20.0 / qblur=0.5 / ip_ratio=1.40 / pb_ratio=1.30 / aq=1:1.00
Язык : English

Аудио #1
Идентификатор : 2
Формат : AC-3
Формат/Информация : Audio Coding 3
Расширение режима : CM (complete main)
Идентификатор кодека : A_AC3
Продолжительность : 25 м.
Вид битрейта : Постоянный
Битрейт : 192 Кбит/сек
Каналы : 2 канала
Расположение каналов : Front: L R
Частота : 48,0 КГц
Битовая глубина : 16 бит
Метод сжатия : С потерями
Размер потока : 35,2 Мбайт (5%)
Заголовок : Дублированный
Язык : Russian

Аудио #2
Идентификатор : 3
Формат : AC-3
Формат/Информация : Audio Coding 3
Расширение режима : CM (complete main)
Идентификатор кодека : A_AC3
Продолжительность : 25 м.
Вид битрейта : Постоянный
Битрейт : 192 Кбит/сек
Каналы : 2 канала
Расположение каналов : Front: L R
Частота : 48,0 КГц
Битовая глубина : 16 бит
Метод сжатия : С потерями
Размер потока : 35,2 Мбайт (5%)
Заголовок : Авторский одноголосый ( Ю.Живов)
Язык : Russian

Аудио #3
Идентификатор : 4
Формат : AC-3
Формат/Информация : Audio Coding 3
Профиль формата : Dolby Digital
Расширение режима : CM (complete main)
Идентификатор кодека : A_AC3
Продолжительность : 25 м.
Вид битрейта : Постоянный
Битрейт : 320 Кбит/сек
Каналы : 2 канала
Расположение каналов : Front: L R
Частота : 48,0 КГц
Битовая глубина : 16 бит
Метод сжатия : С потерями
Размер потока : 58,7 Мбайт (9%)
Заголовок : английский
Язык : English



Релиз от:

Авторы релиза:



   Похожие торренты   Торрент   Размер 
В этой теме нет новых непрочитанных сообщений. Рождественская история Микки / Mickey's Christmas Carol (1983) HDRip от ExKinoRay | D, A

34 | 4

395.85 МБ

В этой теме нет новых непрочитанных сообщений. Рождественская история Микки / Mickey's Christmas Carol (1983) BDRip 720p | D, A

125 | 16

2.28 ГБ

В этой теме нет новых непрочитанных сообщений. Веселое Рождество у Микки / Mickey's Christmas Carol (1983) DVDRip

32 | 6

375.61 МБ

В этой теме нет новых непрочитанных сообщений. Рождественская история / A Christmas Carol (2009) HDRip | A

220 | 18

1.44 ГБ

В этой теме нет новых непрочитанных сообщений. Рождественская история / A Christmas Carol (2009) HDRip | D

191 | 11

747.61 МБ

В этой теме нет новых непрочитанных сообщений. Рождественская история / A Christmas Carol (2009) HDRip от Scarabey | D

309 | 16

747.78 МБ

В этой теме нет новых непрочитанных сообщений. Рождественская история / A Christmas Carol (2009) HDRip от Scarabey | D

348 | 17

1.44 ГБ




Вы не можете начинать темы
Вы не можете отвечать на сообщения
Вы не можете редактировать свои сообщения
Вы не можете удалять свои сообщения
Вы не можете добавлять вложения

Перейти:  
Для Мосгорсуда, Роскомнадзора и рекламодателей: mosgorsud-torrent[собачка]yandex.ru
 Вход
ppkBB3cker v.2 © 2008-2014 @ PPK
[ Time : 0.045s | 17 Queries | GZIP : Off ]

cron