img image001 image001 image001 image001 image001 image001 image001 image001 image001 image001 image001 image001 image001 image001 image001

Planets Sun Sun Sun
Статистика раздачи
Автор: PriZraK | Размер: 4.23 ГБ | Добавлен: 15 фев 2014
Раздают: 55    Качают: 9
Скачать торрент
Скачать торрент
Описание торрента

СообщениеДобавлено: 15 фев 2014 


Джастин и рыцари доблести / Justin and the Knights of Valour (2013) BDRip 1080p от DHT-Movies

Название ... : Джастин и рыцари доблести
Оригинальное название ... : Justin and the Knights of Valour
Страна ... : Испания
Жанр ............. : Мультфильм | Приключения
Режиссер ... : Мануэль Сисилия
Перевод ... : Дубляж (Профессиональный[BD RUS])
Навигация по главам...: есть


В ролях:

Антонио Бандерас .... Sir Clorex
Сирша Ронан .... Talia
Марк Стронг .... Heraclio
Альфред Молина .... Reginald
Дэвид Уоллиамс .... Melquiades
Описание:

Действие мультфильма разворачивается в магическом мире, о котором мечтает каждый ребёнок. Джастин мечтает стать рыцарем, но на его пути появляется много препятствий бюрократического характера. Даже отец Джастина против рыцарства и хочет, чтобы сын стал придворным служащим. Тогда мальчик, обуреваемый желанием стать настоящим доблестным Рыцарем, сбегает из дома в поисках приключений. По дороге он знакомится с прекрасной девушкой — Талией, вдохновляющей его на новые подвиги, и встречает мудрых рыцарей-наставников, которые обучают его рыцарскому мастерству. Но хватит ли Джастину полученных знаний для того, чтобы справиться с угрозой, которая нависла над его Королевством? Сумеет ли мальчик преодолеть все препятствия и достичь своей мечты?




Год выхода ............. : 2013
Формат ................. : Mkv
Продолжительность ...... : 1 hour 36 mins 10 Secs
Битрейт .. : ~ 4 051 Kbps
Профиль формата.....: High/Level 4.1
Идентификатор кодека ....... : MPEG-4 AVC
Ширина ....... : 1920 Pixels
Высота ....... : 804 Pixels
Частота кадров ............ : 23.976 fps
Соотношение сторон ........ : 2.40:1
Аудио кодек /Битрейт ....... : AC3 / 640 Kbps / DTS / 1509 Kbps
Канальность / Частота ..... : 6 channels / 48.0 KHz
Исходник ......... : 1080p.BDRemux

Сэмпл
x264 [info]: frame I:1597 Avg QP:13.35 size:220874
x264 [info]: frame P:31092 Avg QP:18.03 size: 47110
x264 [info]: frame B:105143 Avg QP:22.23 size: 11246
x264 [info]: consecutive B-frames: 2.9% 3.0% 14.8% 10.7% 9.1% 58.0% 1.6%
--------------------------------------------------------------------------------
Format : Matroska
Format version : Version 2
File size : 4.23 GiB
Duration : 1h 35mn
Overall bit rate : 6 326 Kbps
Movie name : avt83@DHT-Movies
Encoded date : UTC 2013-12-05 06:34:07
Writing application : mkvmerge v4.0.0 ('The Stars were mine') сборка от Jun 6 2010 16:18:42
Writing library : libebml v1.0.0 + libmatroska v1.0.0

Video
ID : 1
Format : AVC
Format/Info : Advanced Video Codec
Format profile : High@L4.1
Format settings, CABAC : Yes
Format settings, ReFrames : 5 frames
Codec ID : V_MPEG4/ISO/AVC
Duration : 1h 35mn
Bit rate : 4 051 Kbps
Width : 1 920 pixels
Height : 804 pixels
Display aspect ratio : 2.40:1
Frame rate mode : Constant
Frame rate : 23.976 fps
Color space : YUV
Chroma subsampling : 4:2:0
Bit depth : 8 bits
Scan type : Progressive
Bits/(Pixel*Frame) : 0.109
Stream size : 2.71 GiB (64%)
Writing library : x264 core 138 r2359+704+48 3f879a0 tMod [8-bit@all X86]
Encoding settings : cabac=1 / ref=5 / deblock=1:-1:-1 / analyse=0x3:0x113 / me=umh / subme=11 / psy=1 / fade_compensate=0.00 / psy_rd=0.80:0.05 / mixed_ref=1 / me_range=32 / chroma_me=1 / trellis=2 / 8x8dct=1 / cqm=0 / deadzone=21,11 / fast_pskip=0 / chroma_qp_offset=-3 / threads=8 / lookahead_threads=1 / sliced_threads=0 / nr=0 / decimate=1 / interlaced=0 / bluray_compat=0 / constrained_intra=0 / fgo=0 / bframes=6 / b_pyramid=2 / b_adapt=2 / b_bias=0 / direct=1 / weightb=1 / open_gop=0 / weightp=2 / keyint=240 / keyint_min=23 / scenecut=40 / intra_refresh=0 / rc_lookahead=50 / rc=crf / mbtree=1 / crf=18.0000 / qcomp=0.65 / qpmin=0:0:0 / qpmax=69:69:69 / qpstep=4 / vbv_maxrate=50000 / vbv_bufsize=62500 / crf_max=0.0 / nal_hrd=none / ip_ratio=1.40 / aq=1:0.80 / aq-sensitivity=10.00 / aq-factor=1.00:1.00:1.00 / aq2=0 / aq3=0
Language : English
Default : No
Forced : No

Audio #1
ID : 2
Format : AC-3
Format/Info : Audio Coding 3
Mode extension : CM (complete main)
Format settings, Endianness : Big
Codec ID : A_AC3
Duration : 1h 35mn
Bit rate mode : Constant
Bit rate : 640 Kbps
Channel count : 6 channels
Channel positions : Front: L C R, Side: L R, LFE
Sampling rate : 48.0 KHz
Bit depth : 16 bits
Compression mode : Lossy
Stream size : 439 MiB (10%)
Title : Дубляж BD RUS
Language : Russian
Default : Yes
Forced : Yes

Audio #2
ID : 3
Format : DTS
Format/Info : Digital Theater Systems
Mode : 16
Format settings, Endianness : Big
Codec ID : A_DTS
Duration : 1h 35mn
Bit rate mode : Constant
Bit rate : 1 509 Kbps
Channel count : 6 channels
Channel positions : Front: L C R, Side: L R, LFE
Sampling rate : 48.0 KHz
Bit depth : 16 bits
Compression mode : Lossy
Stream size : 1.01 GiB (24%)
Title : Дубляж BD RUS
Language : Russian
Default : No
Forced : No

Menu
00:00:00.000 : en:00:00:00.000
00:15:15.289 : en:00:15:15.289
00:28:01.513 : en:00:28:01.513
00:48:51.386 : en:00:48:51.386
01:06:21.644 : en:01:06:21.644
01:25:22.867 : en:01:25:22.867




   Похожие торренты   Торрент   Размер 
В этой теме нет новых непрочитанных сообщений. Джастин и рыцари доблести / Justin and the Knights of Valour (2013) BDRemux 1080p от ExKinoRay | Лицензия

20 | 7

15.18 ГБ

В этой теме нет новых непрочитанных сообщений. Джастин и рыцари доблести / Justin and the Knights of Valour (2013) BDRip от New-Team | D | Лицензия

41 | 8

744.96 МБ

В этой теме нет новых непрочитанных сообщений. Джастин и рыцари доблести / Justin and the Knights of Valour (2013) BDRip 720p | Лицензия

17 | 5

4 ГБ

В этой теме нет новых непрочитанных сообщений. Джастин и рыцари доблести / Justin and the Knights of Valour (2013) BDRip-AVC от New-Team | D | Лицензия

104 | 6

1.45 ГБ

В этой теме нет новых непрочитанных сообщений. Джастин и рыцари доблести / Justin and the Knights of Valour (2013) BDRip от New-Team | D | Лицензия

139 | 2

1.45 ГБ

В этой теме нет новых непрочитанных сообщений. Джастин и рыцари доблести / Justin and the Knights of Valour (2013) BDRip-AVC от HELLYWOOD | Лицензия

21 | 3

2.19 ГБ

В этой теме нет новых непрочитанных сообщений. Джастин и рыцари доблести 2D, 3D / Justin and the Knights of Valour 2D, 3D (2013) BDRemux 1080p от ExKinoRay | 3D-Video | D | Лицензия

19 | 11

24.65 ГБ




Вы не можете начинать темы
Вы не можете отвечать на сообщения
Вы не можете редактировать свои сообщения
Вы не можете удалять свои сообщения
Вы не можете добавлять вложения

Перейти:  
Для Мосгорсуда, Роскомнадзора и рекламодателей: mosgorsud-torrent[собачка]yandex.ru
 Вход
ppkBB3cker v.2 © 2008-2014 @ PPK
[ Time : 0.050s | 15 Queries | GZIP : Off ]

cron