img image001 image001 image001 image001 image001 image001 image001 image001 image001 image001 image001 image001 image001 image001 image001

Planets Sun Sun Sun
Статистика раздачи
Автор: PriZraK | Размер: 741.7 МБ | Добавлен: 15 фев 2014
Раздают: 227    Качают: 14
Скачать торрент
Скачать торрент
Описание торрента

СообщениеДобавлено: 15 фев 2014 




Страна: США
Жанр: мультфильм, комедия, приключения, семейный
Продолжительность: 00:45:07
Год выпуска: 2013
Перевод: Профессиональный (многоголосый закадровый) [Baibako]
Субтитры: нет
Оригинальная аудиодорожка: нет
Режиссёр: Ричард Рич / Richard Rich



Роли озвучивали:
Бен Дискин, Кейт Хиггинс, Blackie Rose, Lindsay Torrance, Liza West, Трэйси Пфау, Bill Lader, Meryl Leigh, Шон Жерардо, Chris Smith и др.

Описание:
Кейт и Хамфри и их 3 волчат, готовятся к празднованию их первой совместной зимы, когда их самый маленький детеныш, Рант, таинственным образом исчезает.

Доп. информация: т. к. хронометраж мультфильма небольшой, рип делался в соответствии с настройками под рипы 1,46 Гб.

Качество: BDRip | Исходник: Blu-Ray Remux | Сэмпл
Формат: AVI
Видео: MPEG4, XviD, 720x400 (16:9), 23.976 fps, 1 841 Kbps (0.267 bit/pixel)
Аудио: AC-3, 48.0 KHz, 6 ch, 448 Kbps, CBR
Код:
General
Complete name                            : Alpha.And.Omega.2.P.avi
Format                                   : AVI
Format/Info                              : Audio Video Interleave
File size                                : 742 MiB
Duration                                 : 45mn 7s
Overall bit rate                         : 2 298 Kbps
Writing application                      : VirtualDubMod 1.5.10.2 (build 2540/release)
Writing library                          : VirtualDubMod build 2540/release

Video
ID                                       : 0
Format                                   : MPEG-4 Visual
Format profile                           : Advanced Simple@L5
Format settings, BVOP                    : 2
Format settings, QPel                    : No
Format settings, GMC                     : No warppoints
Format settings, Matrix                  : Default (H.263)
Codec ID                                 : XVID
Codec ID/Hint                            : XviD
Duration                                 : 45mn 7s
Bit rate                                 : 1 841 Kbps
Width                                    : 720 pixels
Height                                   : 400 pixels
Display aspect ratio                     : 16:9
Frame rate                               : 23.976 fps
Color space                              : YUV
Chroma subsampling                       : 4:2:0
Bit depth                                : 8 bits
Scan type                                : Progressive
Compression mode                         : Lossy
Bits/(Pixel*Frame)                       : 0.267
Stream size                              : 594 MiB (80%)
Writing library                          : XviD 1.2.1 (UTC 2008-12-04)

Audio
ID                                       : 1
Format                                   : AC-3
Format/Info                              : Audio Coding 3
Mode extension                           : CM (complete main)
Format settings, Endianness              : Big
Codec ID                                 : 2000
Duration                                 : 45mn 7s
Bit rate mode                            : Constant
Bit rate                                 : 448 Kbps
Channel count                            : 6 channels
Channel positions                        : Front: L C R, Side: L R, LFE
Sampling rate                            : 48.0 KHz
Bit depth                                : 16 bits
Compression mode                         : Lossy
Stream size                              : 145 MiB (19%)
Alignment                                : Split accross interleaves
Interleave, duration                     : 42 ms (1.00 video frame)
Interleave, preload duration             : 500 ms


Релиз от:



   Похожие торренты   Торрент   Размер 
В этой теме нет новых непрочитанных сообщений. Альфа и Омега: Приключения праздничного воя / Alpha and Omega 2: A Howl-iday Adventure (2013) BDRip от HQCLUB

13 | 0

699.96 МБ

В этой теме нет новых непрочитанных сообщений. Альфа и Омега: Приключения праздничного воя / Alpha and Omega 2: A Howl-iday Adventure (2013) BDRip 720p | P

160 | 49

2.02 ГБ

В этой теме нет новых непрочитанных сообщений. Альфа и Омега: Приключения праздничного воя / Alpha and Omega 2: A Howl-iday Adventure (2013) BDRip 720p от HELLYWOOD | P

184 | 12

1.46 ГБ

В этой теме нет новых непрочитанных сообщений. Альфа и Омега: Приключения праздничного воя / Alpha and Omega 2: A Howl-iday Adventure (2013) BDRip-AVC от leonardo 59 & Scarabey

99 | 6

738.95 МБ

В этой теме нет новых непрочитанных сообщений. Альфа и Омега: Приключения праздничного воя / Alpha and Omega 2: A Howl-iday Adventure (2013) BDRip-AVC от leonardo 59 & Scarabey

27 | 3

409.3 МБ

В этой теме нет новых непрочитанных сообщений. Альфа и Омега: Приключения праздничного воя / Alpha and Omega 2: A Howl-iday Adventure (2013) HDRip | P

148 | 9

699.85 МБ

В этой теме нет новых непрочитанных сообщений. Альфа и Омега: Приключения праздничного воя / Alpha and Omega 2: A Howl-iday Adventure (2013) BDRip 720p от leonardo 59 & Scarabey

41 | 11

1.02 ГБ




Вы не можете начинать темы
Вы не можете отвечать на сообщения
Вы не можете редактировать свои сообщения
Вы не можете удалять свои сообщения
Вы не можете добавлять вложения

Перейти:  
Для Мосгорсуда, Роскомнадзора и рекламодателей: mosgorsud-torrent[собачка]yandex.ru
 Вход
ppkBB3cker v.2 © 2008-2014 @ PPK
[ Time : 0.047s | 14 Queries | GZIP : Off ]

Торрент трекер RUTOR.IN, Не можете зайти на rutor.org? Какой новый адрес рутор? Какое зеркало рутор? Не работает rutor.org и зеркала? Тогда наш торрент специально для вас. Rutor.in неофициальное зеркало rutor. В случае если у Вас заблокирован rutor или вдруг Вы не можете на него зайти, то Вы без труда сможете скачать бесплатно и без рекламы последние новинки кино, игр, сериалов и прочего у нас, на Rutor.in. Не нужно использовать прокси, чтобы зайти на рутор, достаточно воспользоваться нашим ресурсом. Все новые фильмы, игры, сериалы, книги и музыка за 2013 и 2014 годы через торрент бесплатно. Скачивайте фильмы в хорошем качестве, игры для пк, xbox, playstation без регистрации. У нас вы найдете новые Зарубежные сериалы и Русские сериалы 2013, 2014, 2015 годов. Оставайтесь с нами, качайте любимые фильмы, игры, сериалы, книги и музыку.