img image001 image001 image001 image001 image001 image001 image001 image001 image001 image001 image001 image001 image001 image001 image001

Planets Sun Sun Sun
Статистика раздачи
Автор: PriZraK | Размер: 34.53 ГБ | Добавлен: 15 фев 2014
Раздают: 4    Качают: 3
Скачать торрент
Скачать торрент
Описание торрента

СообщениеДобавлено: 15 фев 2014 


«В небе, под которым живут Тачки»




Страна: США / DisneyToon Studios, Prana Studios
Жанр: мультфильм, комедия, приключения, семейный
Год выпуска: 2013
Продолжительность: 01:31:35

Перевод: Профессиональный (дублированный)
Cубтитры: смотри ниже
Оригинальная аудиодорожка: английский

Режиссер: Клэй Холл / Klay Hall

В ролях: Дейн Кук, Стейси Кич, Брэд Гэррет, Тери Хэтчер, Джулия Луис-Дрейфус, Приянка Чопра, Джон Клиз, Седрик «Развлекатель», Карлос Аласраки, Роджер Крэйг Смит...

Роли дублировали: Константин Крюков, Нонна Гришаева, Равшана Куркова, Алексей Чумаков, Александр Ноткин...

Описание: Дасти Полейполе — скромный трудяга-самолет, работающий сельскохозяйственным распылителем на заштатном провинциальном аэродроме. Однако это не мешает ему мечтать о том, чтобы однажды принять участие в кругосветных гонках самых быстрых самолетов. Одна незадача — Дасти панически боится большой высоты. Поэтому, когда волею случая он все же попадает в число участников отборочного тура воздушных соревнований, ему приходится искать помощи у ветерана военно-морской авиации, отставного истребителя Шкипера. С помощью мудрого наставника Дасти сможет преодолеть свои слабости и бросить вызов надменному чемпиону Рипслингеру, а весь мир будет с замиранием сердца следить за гонкой в небесах!..



Качество: Blu-ray 1080p
Формат: BDAV

Видео: 1920x1080, MPEG-4 AVC Video 26259 kbps 1080p / 23,976 fps / 16:9 / High Profile 4.1
Аудио:
DTS-HD Master Audio English 4893 kbps 7.1 / 48 kHz / 4893 kbps / 24-bit (DTS Core: 5.1 / 48 kHz / 1509 kbps / 24-bit)
DTS Audio Arabic 1509 kbps 5.1 / 48 kHz / 1509 kbps / 24-bit
DTS Audio Polish 1509 kbps 5.1 / 48 kHz / 1509 kbps / 24-bit
Dolby Digital Audio Russian 640 kbps 5.1 / 48 kHz / 640 kbps
Субтитры:
Presentation Graphics English 51,221 kbps
Presentation Graphics English 44,911 kbps
Presentation Graphics Arabic 24,208 kbps
Presentation Graphics Arabic 0,485 kbps
Presentation Graphics Polish 35,920 kbps
Presentation Graphics Polish 0,188 kbps
Presentation Graphics Russian 43,355 kbps
Presentation Graphics Russian 0,686 kbps

Раздача от:
DISC INFO:

Disc Title: PLANES_HDCLUB
Disc Size: 37 074 318 179 bytes
Protection: AACS
BD-Java: Yes
BDInfo: 0.5.8

PLAYLIST REPORT:

Name: 00800.MPLS
Length: 1:31:35.280 (h:m:s.ms)
Size: 25 566 597 120 bytes
Total Bitrate: 37,22 Mbps

VIDEO:

Codec Bitrate Deion
----- ------- -----------
MPEG-4 AVC Video 26259 kbps 1080p / 23,976 fps / 16:9 / High Profile 4.1

AUDIO:

Codec Language Bitrate Deion
----- -------- ------- -----------
DTS-HD Master Audio English 4893 kbps 7.1 / 48 kHz / 4893 kbps / 24-bit (DTS Core: 5.1 / 48 kHz / 1509 kbps / 24-bit)
DTS Audio Arabic 1509 kbps 5.1 / 48 kHz / 1509 kbps / 24-bit
DTS Audio Polish 1509 kbps 5.1 / 48 kHz / 1509 kbps / 24-bit
Dolby Digital Audio Russian 640 kbps 5.1 / 48 kHz / 640 kbps

SUBTITLES:

Codec Language Bitrate Deion
----- -------- ------- -----------
Presentation Graphics English 51,221 kbps
Presentation Graphics English 44,911 kbps
Presentation Graphics Arabic 24,208 kbps
Presentation Graphics Arabic 0,485 kbps
Presentation Graphics Polish 35,920 kbps
Presentation Graphics Polish 0,188 kbps
Presentation Graphics Russian 43,355 kbps
Presentation Graphics Russian 0,686 kbps

FILES:

Name Time In Length Size Total Bitrate
---- ------- ------ ---- -------------
00039.M2TS 0:00:00.000 0:00:37.454 198 610 944 42 422
00180.M2TS 0:00:37.454 0:00:19.019 95 385 600 40 122
00042.M2TS 0:00:56.473 0:05:26.075 1 527 171 072 37 468
00044.M2TS 0:06:22.548 0:00:10.385 47 136 768 36 310
00045.M2TS 0:06:32.934 0:03:47.560 1 044 830 208 36 731
00047.M2TS 0:10:20.494 0:00:33.867 158 343 168 37 403
00048.M2TS 0:10:54.361 0:00:33.742 161 052 672 38 184
00050.M2TS 0:11:28.104 0:00:13.430 63 430 656 37 784
00051.M2TS 0:11:41.534 0:00:35.910 168 290 304 37 491
00053.M2TS 0:12:17.444 0:00:12.095 55 474 176 36 691
00054.M2TS 0:12:29.540 0:00:12.178 56 186 880 36 908
00056.M2TS 0:12:41.719 0:00:13.888 64 106 496 36 925
00057.M2TS 0:12:55.608 0:00:21.563 100 233 216 37 187
00059.M2TS 0:13:17.171 0:00:18.643 88 043 520 37 780
00060.M2TS 0:13:35.814 0:12:31.125 3 526 139 904 37 556
00062.M2TS 0:26:06.940 0:00:46.212 212 981 760 36 870
00063.M2TS 0:26:53.153 0:00:29.362 134 400 000 36 618
00065.M2TS 0:27:22.515 0:00:15.432 70 760 448 36 682
00066.M2TS 0:27:37.947 0:00:30.989 141 447 168 36 515
00068.M2TS 0:28:08.937 0:00:09.050 41 275 392 36 484
00069.M2TS 0:28:17.987 0:00:28.278 128 274 432 36 289
00071.M2TS 0:28:46.265 0:00:10.427 47 634 432 36 547
00072.M2TS 0:28:56.693 0:00:18.935 85 917 696 36 299
00074.M2TS 0:29:15.628 0:00:12.971 59 191 296 36 506
00075.M2TS 0:29:28.599 0:00:35.285 173 832 192 39 412
00077.M2TS 0:30:03.885 0:00:56.097 259 080 192 36 947
00078.M2TS 0:30:59.982 0:00:30.488 140 863 488 36 961
00080.M2TS 0:31:30.471 0:00:37.078 175 429 632 37 850
00081.M2TS 0:32:07.550 0:00:17.017 79 761 408 37 497
00083.M2TS 0:32:24.567 0:00:10.593 48 721 920 36 792
00084.M2TS 0:32:35.161 0:00:29.404 135 014 400 36 733
00086.M2TS 0:33:04.565 0:00:30.488 143 923 200 37 764
00087.M2TS 0:33:35.054 0:00:09.384 42 203 136 35 977
00089.M2TS 0:33:44.438 0:00:51.801 243 499 008 37 605
00090.M2TS 0:34:36.240 0:00:37.662 175 607 808 37 301
00092.M2TS 0:35:13.903 0:00:25.150 114 849 792 36 533
00093.M2TS 0:35:39.053 0:00:38.496 174 336 000 36 229
00095.M2TS 0:36:17.549 0:00:22.522 104 552 448 37 137
00096.M2TS 0:36:40.072 0:00:09.843 47 210 496 38 370
00098.M2TS 0:36:49.915 0:00:09.259 43 081 728 37 223
00099.M2TS 0:36:59.174 0:00:29.863 145 330 176 38 932
00101.M2TS 0:37:29.038 0:00:11.469 52 801 536 36 828
00102.M2TS 0:37:40.507 0:03:25.538 948 879 360 36 932
00104.M2TS 0:41:06.046 0:00:09.467 43 327 488 36 610
00105.M2TS 0:41:15.514 0:00:30.572 142 270 464 37 229
00107.M2TS 0:41:46.086 0:00:10.135 46 485 504 36 693
00108.M2TS 0:41:56.221 0:03:12.275 912 162 816 37 952
00110.M2TS 0:45:08.496 0:00:26.026 117 540 864 36 130
00111.M2TS 0:45:34.522 0:02:33.278 702 769 152 36 679
00113.M2TS 0:48:07.801 0:00:11.553 54 435 840 37 694
00114.M2TS 0:48:19.354 0:02:10.338 605 091 840 37 140
00116.M2TS 0:50:29.692 0:00:12.804 61 925 376 38 690
00117.M2TS 0:50:42.497 0:00:55.305 250 908 672 36 294
00119.M2TS 0:51:37.802 0:00:12.804 59 817 984 37 373
00120.M2TS 0:51:50.606 0:02:12.674 601 712 640 36 282
00122.M2TS 0:54:03.281 0:00:18.268 79 017 984 34 603
00123.M2TS 0:54:21.549 0:00:22.439 99 932 160 35 628
00125.M2TS 0:54:43.988 0:00:14.389 64 905 216 36 085
00126.M2TS 0:54:58.377 0:00:20.020 91 631 616 36 616
00128.M2TS 0:55:18.397 0:00:44.961 203 722 752 36 248
00129.M2TS 0:56:03.359 0:00:23.565 107 520 000 36 501
00131.M2TS 0:56:26.924 0:00:15.890 72 794 112 36 647
00132.M2TS 0:56:42.815 0:12:17.153 3 435 030 528 37 279
00134.M2TS 1:08:59.968 0:00:31.948 146 767 872 36 751
00135.M2TS 1:09:31.917 0:00:33.533 153 993 216 36 738
00137.M2TS 1:10:05.450 0:00:34.367 159 430 656 37 112
00138.M2TS 1:10:39.818 0:02:02.038 564 713 472 37 019
00140.M2TS 1:12:41.856 0:00:28.236 132 378 624 37 506
00141.M2TS 1:13:10.093 0:00:17.934 84 725 760 37 793
00143.M2TS 1:13:28.027 0:00:18.184 85 493 760 37 611
00144.M2TS 1:13:46.212 0:00:15.598 73 420 800 37 654
00146.M2TS 1:14:01.811 0:00:12.554 59 209 728 37 731
00147.M2TS 1:14:14.365 0:04:31.354 1 275 420 672 37 602
00149.M2TS 1:18:45.720 0:00:43.960 206 057 472 37 499
00154.M2TS 1:19:29.680 0:00:21.312 98 740 224 37 063
00156.M2TS 1:19:50.993 0:00:12.387 55 443 456 35 806
00157.M2TS 1:20:03.381 0:01:06.274 306 413 568 36 987
00159.M2TS 1:21:09.655 0:00:26.151 123 371 520 37 741
00160.M2TS 1:21:35.806 0:01:05.190 307 433 472 37 728
00162.M2TS 1:22:40.996 0:01:37.097 459 214 848 37 836
00163.M2TS 1:24:18.093 0:07:17.186 1 996 068 864 36 526

CHAPTERS:

Number Time In Length Avg Video Rate Max 1-Sec Rate Max 1-Sec Time Max 5-Sec Rate Max 5-Sec Time Max 10Sec Rate Max 10Sec Time Avg Frame Size Max Frame Size Max Frame Time
------ ------- ------ -------------- -------------- -------------- -------------- -------------- -------------- -------------- -------------- -------------- --------------
1 0:00:00.000 0:04:41.990 28 404 kbps 37 079 kbps 00:01:50.109 33 872 kbps 00:00:34.451 33 563 kbps 00:00:23.857 148 062 bytes 635 724 bytes 00:04:03.952
2 0:04:41.990 0:02:41.244 23 489 kbps 36 169 kbps 00:07:18.479 33 183 kbps 00:07:18.020 29 571 kbps 00:07:13.057 122 461 bytes 638 419 bytes 00:05:48.431
3 0:07:23.234 0:01:41.059 22 416 kbps 32 505 kbps 00:08:38.601 27 746 kbps 00:08:01.898 27 527 kbps 00:07:55.892 116 866 bytes 636 447 bytes 00:07:48.926
4 0:09:04.293 0:05:33.791 27 910 kbps 40 130 kbps 00:09:14.887 34 224 kbps 00:09:10.883 33 777 kbps 00:09:05.878 145 510 bytes 640 309 bytes 00:10:38.095
5 0:14:38.085 0:02:52.463 26 150 kbps 36 433 kbps 00:15:21.211 33 532 kbps 00:14:55.310 31 376 kbps 00:14:55.310 136 333 bytes 640 897 bytes 00:15:28.385
6 0:17:30.549 0:07:28.322 25 672 kbps 36 572 kbps 00:22:55.540 34 027 kbps 00:22:46.573 33 657 kbps 00:22:47.199 133 842 bytes 640 685 bytes 00:21:36.670
7 0:24:58.872 0:05:11.894 27 685 kbps 37 646 kbps 00:25:33.782 33 870 kbps 00:29:55.543 33 593 kbps 00:29:50.538 144 339 bytes 640 313 bytes 00:28:03.640
8 0:30:10.767 0:06:17.418 25 981 kbps 36 771 kbps 00:34:56.010 33 963 kbps 00:34:52.047 33 380 kbps 00:31:57.582 135 455 bytes 636 438 bytes 00:36:09.833
9 0:36:28.185 0:04:09.332 25 929 kbps 36 575 kbps 00:36:59.883 31 799 kbps 00:38:43.320 30 556 kbps 00:37:43.010 135 181 bytes 640 565 bytes 00:40:32.137
10 0:40:37.517 0:02:13.675 27 834 kbps 36 820 kbps 00:42:18.744 33 917 kbps 00:42:15.741 33 542 kbps 00:42:15.741 145 113 bytes 639 176 bytes 00:40:55.327
11 0:42:51.193 0:05:16.607 26 310 kbps 37 038 kbps 00:45:44.658 33 536 kbps 00:47:25.383 33 167 kbps 00:43:13.507 137 166 bytes 640 345 bytes 00:44:40.969
12 0:48:07.801 0:03:30.001 26 129 kbps 36 644 kbps 00:48:56.474 33 890 kbps 00:48:52.470 33 611 kbps 00:48:47.465 136 227 bytes 640 837 bytes 00:51:13.569
13 0:51:37.802 0:04:44.575 25 810 kbps 40 114 kbps 00:54:29.098 34 021 kbps 00:52:04.996 33 649 kbps 00:51:59.991 134 560 bytes 640 623 bytes 00:54:31.559
14 0:56:22.378 0:03:43.765 27 469 kbps 38 980 kbps 00:56:59.582 34 365 kbps 00:56:55.703 33 783 kbps 00:56:50.740 143 209 bytes 640 654 bytes 00:56:40.646
15 1:00:06.143 0:01:53.780 24 617 kbps 35 011 kbps 01:01:41.363 33 529 kbps 01:01:29.810 32 930 kbps 01:01:16.463 128 341 bytes 524 253 bytes 01:00:07.853
16 1:01:59.923 0:05:05.388 26 376 kbps 40 754 kbps 01:04:16.143 33 827 kbps 01:06:10.257 33 594 kbps 01:06:09.548 137 514 bytes 639 214 bytes 01:02:34.917
17 1:07:05.312 0:03:07.729 26 385 kbps 35 602 kbps 01:10:11.081 33 452 kbps 01:08:22.013 31 949 kbps 01:08:17.050 137 561 bytes 640 155 bytes 01:10:07.285
18 1:10:13.041 0:02:14.092 25 218 kbps 35 973 kbps 01:11:39.336 32 257 kbps 01:10:32.060 31 008 kbps 01:10:32.435 131 474 bytes 634 761 bytes 01:11:21.985
19 1:12:27.133 0:03:59.781 27 394 kbps 39 655 kbps 01:14:03.438 33 864 kbps 01:12:27.133 32 053 kbps 01:15:11.798 142 818 bytes 637 721 bytes 01:13:11.928
20 1:16:26.914 0:15:08.365 25 550 kbps 41 138 kbps 01:31:22.768 35 561 kbps 01:31:18.764 33 359 kbps 01:31:22.976 133 212 bytes 640 890 bytes 01:25:52.187





   Похожие торренты   Торрент   Размер 
В этой теме нет новых непрочитанных сообщений. Самолёты / Planes (2013) BDRemux 1080p от New-Team | D | лицензия

5 | 5

22.21 ГБ

В этой теме нет новых непрочитанных сообщений. Самолёты / Planes (2013) DVD9 R5 от New-Team | D | лицензия

13 | 8

5.99 ГБ

В этой теме нет новых непрочитанных сообщений. Самолеты / Planes (2013) BDRip от New-Team | D | Лицензия

170 | 19

1.45 ГБ

В этой теме нет новых непрочитанных сообщений. Самолеты / Planes (2013) BDRip от New-Team | D | Лицензия

144 | 16

744.79 МБ

В этой теме нет новых непрочитанных сообщений. Самолёты. Дилогия / Planes. Dilogy (2013-2014) 2xDVD9 от New-Team | D | Лицензия

69 | 31

11.62 ГБ

В этой теме нет новых непрочитанных сообщений. Самолеты / Planes (2013) BDRemux 1080p | Лицензия

10 | 5

20.23 ГБ

В этой теме нет новых непрочитанных сообщений. Самолеты / Planes (2013) BDRip 1080p | Лицензия

41 | 6

6.93 ГБ




Вы не можете начинать темы
Вы не можете отвечать на сообщения
Вы не можете редактировать свои сообщения
Вы не можете удалять свои сообщения
Вы не можете добавлять вложения

Перейти:  
Для Мосгорсуда, Роскомнадзора и рекламодателей: mosgorsud-torrent[собачка]yandex.ru
 Вход
ppkBB3cker v.2 © 2008-2014 @ PPK
[ Time : 0.044s | 15 Queries | GZIP : Off ]

Торрент трекер RUTOR.IN, Не можете зайти на rutor.org? Какой новый адрес рутор? Какое зеркало рутор? Не работает rutor.org и зеркала? Тогда наш торрент специально для вас. Rutor.in неофициальное зеркало rutor. В случае если у Вас заблокирован rutor или вдруг Вы не можете на него зайти, то Вы без труда сможете скачать бесплатно и без рекламы последние новинки кино, игр, сериалов и прочего у нас, на Rutor.in. Не нужно использовать прокси, чтобы зайти на рутор, достаточно воспользоваться нашим ресурсом. Все новые фильмы, игры, сериалы, книги и музыка за 2013 и 2014 годы через торрент бесплатно. Скачивайте фильмы в хорошем качестве, игры для пк, xbox, playstation без регистрации. У нас вы найдете новые Зарубежные сериалы и Русские сериалы 2013, 2014, 2015 годов. Оставайтесь с нами, качайте любимые фильмы, игры, сериалы, книги и музыку.