img image001 image001 image001 image001 image001 image001 image001 image001 image001 image001 image001 image001 image001 image001 image001

Planets Sun Sun Sun
Статистика раздачи
Автор: PriZraK | Размер: 7.87 ГБ | Добавлен: 15 фев 2014
Раздают: 32    Качают: 6
Скачать торрент
Скачать торрент
Описание торрента

СообщениеДобавлено: 15 фев 2014 



Информация о фильме
    Русское название: Самолеты
    Оригинальное название: Planes
    Год выхода: 2013
    Жанр: Комедия, приключения
    Режиссер: Клэй Холл
    Выпущено: США
    Продолжительность: 01:31:35
    Перевод: Дублированный
    В ролях: Дейн Кук, Стейси Кич, Брэд Гэррет, Тери Хэтчер, Джулия Луис-Дрейфус, Приянка Чопра, Джон Клиз, Седрик «Развлекатель», Карлос Аласраки, Роджер Крэйг Смит


Сюжет фильма
    Дасти Полейполе - скромный трудяга-самолет, работающий сельскохозяйственным распылителем на заштатном провинциальном аэродроме. Однако это не мешает ему мечтать о том, чтобы однажды принять участие в кругосветных гонках самых быстрых самолетов. Одна незадача - Дасти панически боится большой высоты. Поэтому, когда волею случая он все же попадает в число участников отборочного тура воздушных соревнований, ему приходится искать помощи у ветерана военно-морской авиации, отставного истребителя Шкипера. С помощью мудрого наставника Дасти сможет преодолеть свои слабости и бросить вызов надменному чемпиону Рипслингеру, а весь мир будет с замиранием сердца следить за гонкой в небесах!..


Файл
    Качество: BDRip 1080p (исходник Blu-ray Disc)
    Видео: 1920x1080, 11040 Кбит/сек, 23,976 кадр/сек, AVC, x264, High@L4.1, 16:9, 0.222 Бит/[Пиксели*Кадры], 2pass
    Аудио 1: AC-3, 640 Кбит/сек, 6 канала(ов), 48,0 КГц - Дублированный / Русский
    Аудио 2: AC-3, 640 Кбит/сек, 6 канала(ов), 48,0 КГц - Оригинал / Английский
    Субтитры: Русские | Полные/Форсирующие, Английские | Полные
    Чаптеры: Есть



Автор Рипа: Сообщество:



Format : Matroska
Format version : Version 2
File size : 7.87 GiB
Duration : 1h 31mn
Overall bit rate : 12.3 Mbps
Movie name : Самолеты.(2013).BDRip.1080p.[envy]
Encoded date : UTC 2013-12-12 03:49:02
Writing application : mkvmerge v5.8.0 ('No Sleep / Pillow') built on Sep 2 2012 15:37:04
Writing library : libebml v1.2.3 + libmatroska v1.3.0

Video
ID : 1
Format : AVC
Format/Info : Advanced Video Codec
Format profile : High@L4.1
Format settings, CABAC : Yes
Format settings, ReFrames : 4 frames
Codec ID : V_MPEG4/ISO/AVC
Duration : 1h 31mn
Bit rate : 11.0 Mbps
Width : 1 920 pixels
Height : 1 080 pixels
Display aspect ratio : 16:9
Frame rate mode : Constant
Frame rate : 23.976 fps
Color space : YUV
Chroma subsampling : 4:2:0
Bit depth : 8 bits
Scan type : Progressive
Bits/(Pixel*Frame) : 0.222
Stream size : 6.89 GiB (88%)
Title : Самолеты.(2013).BDRip.1080p.[envy]
Writing library : x264 core 140 r2377 1ca7bb9
Encoding settings : cabac=1 / ref=4 / deblock=1:-1:-1 / analyse=0x3:0x133 / me=umh / subme=11 / psy=1 / psy_rd=1.00:0.00 / mixed_ref=1 / me_range=32 / chroma_me=1 / trellis=2 / 8x8dct=1 / cqm=0 / deadzone=21,11 / fast_pskip=0 / chroma_qp_offset=-2 / threads=12 / lookahead_threads=1 / sliced_threads=0 / nr=0 / decimate=1 / interlaced=0 / bluray_compat=0 / constrained_intra=0 / bframes=6 / b_pyramid=2 / b_adapt=2 / b_bias=0 / direct=3 / weightb=1 / open_gop=0 / weightp=2 / keyint=240 / keyint_min=23 / scenecut=40 / intra_refresh=0 / rc=2pass / mbtree=0 / bitrate=11040 / ratetol=2.0 / qcomp=0.60 / qpmin=0 / qpmax=69 / qpstep=4 / cplxblur=20.0 / qblur=0.5 / ip_ratio=1.40 / pb_ratio=1.30 / aq=1:0.80
Language : English
Default : Yes
Forced : No

Audio #1
ID : 2
Format : AC-3
Format/Info : Audio Coding 3
Mode extension : CM (complete main)
Format settings, Endianness : Big
Codec ID : A_AC3
Duration : 1h 31mn
Bit rate mode : Constant
Bit rate : 640 Kbps
Channel count : 6 channels
Channel positions : Front: L C R, Side: L R, LFE
Sampling rate : 48.0 KHz
Bit depth : 16 bits
Compression mode : Lossy
Stream size : 419 MiB (5%)
Title : Dub
Language : Russian
Default : Yes
Forced : No

Audio #2
ID : 3
Format : AC-3
Format/Info : Audio Coding 3
Mode extension : CM (complete main)
Format settings, Endianness : Big
Codec ID : A_AC3
Duration : 1h 31mn
Bit rate mode : Constant
Bit rate : 640 Kbps
Channel count : 6 channels
Channel positions : Front: L C R, Side: L R, LFE
Sampling rate : 48.0 KHz
Bit depth : 16 bits
Compression mode : Lossy
Stream size : 419 MiB (5%)
Title : Eng
Language : English
Default : No
Forced : No

Text #1
ID : 4
Format : UTF-8
Codec ID : S_TEXT/UTF8
Codec ID/Info : UTF-8 Plain Text
Title : Rus forced
Language : Russian
Default : Yes
Forced : Yes

Text #2
ID : 5
Format : UTF-8
Codec ID : S_TEXT/UTF8
Codec ID/Info : UTF-8 Plain Text
Title : Rus full
Language : Russian
Default : No
Forced : No

Text #3
ID : 6
Format : UTF-8
Codec ID : S_TEXT/UTF8
Codec ID/Info : UTF-8 Plain Text
Title : Eng full
Language : English
Default : No
Forced : No

Menu
00:00:00.000 : :Chapter 01
00:04:41.990 : :Chapter 02
00:07:23.234 : :Chapter 03
00:09:04.293 : :Chapter 04
00:14:38.085 : :Chapter 05
00:17:30.549 : :Chapter 06
00:24:58.872 : :Chapter 07
00:30:10.767 : :Chapter 08
00:36:28.185 : :Chapter 09
00:40:37.517 : :Chapter 10
00:42:51.193 : :Chapter 11
00:48:07.801 : :Chapter 12
00:51:37.802 : :Chapter 13
00:56:22.378 : :Chapter 14
01:00:06.143 : :Chapter 15
01:01:59.923 : :Chapter 16
01:07:05.312 : :Chapter 17
01:10:13.041 : :Chapter 18
01:12:27.133 : :Chapter 19
01:16:26.914 : :Chapter 20
01:31:35.030 : :Chapter 21


При поддержке:



   Похожие торренты   Торрент   Размер 
В этой теме нет новых непрочитанных сообщений. Самолеты / Planes (2013) BDRip 1080p

48 | 7

5.76 ГБ

В этой теме нет новых непрочитанных сообщений. Самолеты / Planes (2013) BDRip 1080p от R.G. HD-Films | 60 fps

240 | 42

9.79 ГБ

В этой теме нет новых непрочитанных сообщений. Самолеты / Planes (2013) BDRip 1080p | Лицензия

41 | 6

6.93 ГБ

В этой теме нет новых непрочитанных сообщений. Самолеты / Planes (2013) BDRip-HEVC 1080p от FREEISLAND

76 | 6

2.68 ГБ

В этой теме нет новых непрочитанных сообщений. Самолеты / Planes (2013) BDRip 1080p от Killbrain and Scarabey | Лицензия

19 | 5

6.57 ГБ

В этой теме нет новых непрочитанных сообщений. Самолеты / Planes (2013) BDRip 1080p от Killbrain and Scarabey | 3D-Video | Лицензия

128 | 11

6.57 ГБ

В этой теме нет новых непрочитанных сообщений. Самолеты / Planes (2013) BDRip 1080p от Ash61 | 3D-Video | halfOU | Лицензия

31 | 3

6.24 ГБ




Вы не можете начинать темы
Вы не можете отвечать на сообщения
Вы не можете редактировать свои сообщения
Вы не можете удалять свои сообщения
Вы не можете добавлять вложения

Перейти:  
Для Мосгорсуда, Роскомнадзора и рекламодателей: mosgorsud-torrent[собачка]yandex.ru
 Вход
ppkBB3cker v.2 © 2008-2014 @ PPK
[ Time : 0.045s | 16 Queries | GZIP : Off ]

Торрент трекер RUTOR.IN, Не можете зайти на rutor.org? Какой новый адрес рутор? Какое зеркало рутор? Не работает rutor.org и зеркала? Тогда наш торрент специально для вас. Rutor.in неофициальное зеркало rutor. В случае если у Вас заблокирован rutor или вдруг Вы не можете на него зайти, то Вы без труда сможете скачать бесплатно и без рекламы последние новинки кино, игр, сериалов и прочего у нас, на Rutor.in. Не нужно использовать прокси, чтобы зайти на рутор, достаточно воспользоваться нашим ресурсом. Все новые фильмы, игры, сериалы, книги и музыка за 2013 и 2014 годы через торрент бесплатно. Скачивайте фильмы в хорошем качестве, игры для пк, xbox, playstation без регистрации. У нас вы найдете новые Зарубежные сериалы и Русские сериалы 2013, 2014, 2015 годов. Оставайтесь с нами, качайте любимые фильмы, игры, сериалы, книги и музыку.
cron