img image001 image001 image001 image001 image001 image001 image001 image001 image001 image001 image001 image001 image001 image001 image001

Planets Sun Sun Sun
Статистика раздачи
Автор: PriZraK | Размер: 2.14 ГБ | Добавлен: 15 фев 2014
Раздают: 22    Качают: 2
Скачать торрент
Скачать торрент
Описание торрента

СообщениеДобавлено: 15 фев 2014 




Информация о фильме

Название: Спасти Санту
Оригинальное название: Saving Santa
Год выпуска: 2013
Жанр: Мультфильм, мюзикл, комедия, семейный
Выпущено: Великобритания, Gateway Films
Режиссер: Леон Джусен, Аарон Силман
В ролях: Мартин Фриман, Тим Карри, Тим Конуэй, Пэм Феррис, Эшли Тисдэйл, Джоан Коллинз, Ксавье Алькан, Крис Барри, Ноэль Кларк, Ребекка Фердинандо
О фильме: Эльф Бернард — очень мил, весел, и… слегка несерьёзен. Но ему придется измениться, ведь у него впереди потрясающее и очень опасное приключение! Кто-то собирается похитить Санту и его волшебные сани, в которых можно перемещаться в разные эпохи. А без Санты Новый год никогда не наступит! Бернарду придётся переместиться во времени, сразиться со злодеем, остановить его армию, изменить прошлое, спасти Новый год и стать настоящим героем!

Файл

Качество: BDRip (AVC)
Видео: MPEG-4 AVC, 2817 Кбит/с, 1024x554, 23.976 кадр/с
Аудио: Русский (AC3, 6 ch, 384 Кбит/с), английский (AC3, 6 ch, 448 Кбит/с)
Размер: 2.14 ГБ
Продолжительность: 01:23:47
Перевод: Дублированный
Сохранены оригинальные чаптеры как на Blu-Ray
Общее
Уникальный идентификатор : 195028332012739139562958685489390958005 (0x92B9172890A4D178A4449F1A8BE035B5)
Полное имя : C:ЗагрузкиSpasti.Santu.2013.x264.BDRip.(AVC).ExKinoRay.mkv
Формат : Matroska
Версия формата : Version 2
Размер файла : 2,14 Гбайт
Продолжительность : 1 ч. 23 м.
Общий поток : 3650 Кбит/сек
Название фильма : Спасти Санту. 2013. Rip by: ollan
Дата кодирования : UTC 2013-12-13 21:27:06
Программа кодирования : mkvmerge v5.6.0 ('Kenya Kane') built on May 27 2012 16:44:04
Библиотека кодирования : libebml v1.2.3 + libmatroska v1.3.0

Видео
Идентификатор : 1
Формат : AVC
Формат/Информация : Advanced Video Codec
Профиль формата : High@L4.1
Параметр CABAC формата : Да
Параметр ReFrames формата : 9 кадров
Идентификатор кодека : V_MPEG4/ISO/AVC
Продолжительность : 1 ч. 23 м.
Битрейт : 2817 Кбит/сек
Ширина : 1024 пикселя
Высота : 554 пикселя
Соотношение сторон : 1,85:1
Режим частоты кадров : Постоянный
Частота кадров : 23,976 кадра/сек
Цветовое пространство : YUV
Субдискретизация насыщенности : 4:2:0
Битовая глубина : 8 бит
Тип развёртки : Прогрессивная
Бит/(Пиксели*Кадры) : 0.207
Размер потока : 1,61 Гбайт (75%)
Библиотека кодирования : x264 core 125 r2200 999b753
Настройки программы : cabac=1 / ref=9 / deblock=1:-2:-2 / analyse=0x3:0x133 / me=umh / subme=11 / psy=1 / psy_rd=1.00:0.10 / mixed_ref=1 / me_range=32 / chroma_me=1 / trellis=2 / 8x8dct=1 / cqm=0 / deadzone=21,11 / fast_pskip=0 / chroma_qp_offset=-3 / threads=12 / lookahead_threads=2 / sliced_threads=0 / nr=0 / decimate=0 / interlaced=0 / bluray_compat=0 / constrained_intra=0 / bframes=9 / b_pyramid=2 / b_adapt=2 / b_bias=0 / direct=3 / weightb=1 / open_gop=0 / weightp=2 / keyint=240 / keyint_min=23 / scenecut=40 / intra_refresh=0 / rc_lookahead=40 / rc=2pass / mbtree=1 / bitrate=2817 / ratetol=1.0 / qcomp=0.60 / qpmin=0 / qpmax=69 / qpstep=4 / cplxblur=20.0 / qblur=0.5 / ip_ratio=1.40 / aq=1:1.00
Default : Да
Forced : Нет

Аудио #1
Идентификатор : 2
Формат : AC-3
Формат/Информация : Audio Coding 3
Расширение режима : CM (complete main)
Параметр Endianness формата : Big
Идентификатор кодека : A_AC3
Продолжительность : 1 ч. 23 м.
Вид битрейта : Постоянный
Битрейт : 384 Кбит/сек
Каналы : 6 каналов
Расположение каналов : Front: L C R, Side: L R, LFE
Частота : 48,0 КГц
Битовая глубина : 16 бит
Метод сжатия : С потерями
Размер потока : 230 Мбайт (11%)
Заголовок : Дублированный (лицензия ДВД)
Язык : Russian
Default : Да
Forced : Да

Аудио #2
Идентификатор : 3
Формат : AC-3
Формат/Информация : Audio Coding 3
Расширение режима : CM (complete main)
Параметр Endianness формата : Big
Идентификатор кодека : A_AC3
Продолжительность : 1 ч. 23 м.
Вид битрейта : Постоянный
Битрейт : 448 Кбит/сек
Каналы : 6 каналов
Расположение каналов : Front: L C R, Side: L R, LFE
Частота : 48,0 КГц
Битовая глубина : 16 бит
Метод сжатия : С потерями
Размер потока : 269 Мбайт (12%)
Язык : English
Default : Нет
Forced : Нет

Меню
00:00:00.000 : en:00:00:00.000
00:09:08.381 : en:00:09:08.381
00:15:11.118 : en:00:15:11.118
00:22:06.700 : en:00:22:06.700
00:29:23.428 : en:00:29:23.428
00:39:12.308 : en:00:39:12.308
00:47:16.667 : en:00:47:16.667
00:54:38.525 : en:00:54:38.525
01:03:50.618 : en:01:03:50.618
01:10:20.174 : en:01:10:20.174
01:16:39.761 : en:01:16:39.761
01:19:49.784 : en:01:19:49.784







Релиз от: Rip by:



   Похожие торренты   Торрент   Размер 
В этой теме нет новых непрочитанных сообщений. Спасти Санту / Saving Santa (2013) BDRip от HQCLUB | Лицензия

594 | 10

1.45 ГБ

В этой теме нет новых непрочитанных сообщений. Спасти Санту / Saving Santa (2013) BDRip 720p от HELLYWOOD | Лицензия

64 | 4

2.19 ГБ

В этой теме нет новых непрочитанных сообщений. Спасти Санту / Saving Santa (2013) BDRip 720p от leonardo 59 & Scarabey | Лицензия

34 | 3

2.17 ГБ

В этой теме нет новых непрочитанных сообщений. Спасти Санту / Saving Santa (2013) HDRip | Лицензия

83 | 16

746 МБ

В этой теме нет новых непрочитанных сообщений. Спасти Санту / Saving Santa (2013) HDRip | Лицензия

312 | 13

1.37 ГБ

В этой теме нет новых непрочитанных сообщений. Спасти Санту / Saving Santa (2013) DVD5 R5 от New-Team | D | лицензия

8 | 2

4.13 ГБ

В этой теме нет новых непрочитанных сообщений. Спасти Санту / Saving Santa (2013) BDRip-AVC от RG Jolly Roger

20 | 2

1.44 ГБ




Вы не можете начинать темы
Вы не можете отвечать на сообщения
Вы не можете редактировать свои сообщения
Вы не можете удалять свои сообщения
Вы не можете добавлять вложения

Перейти:  
Для Мосгорсуда, Роскомнадзора и рекламодателей: mosgorsud-torrent[собачка]yandex.ru
 Вход
ppkBB3cker v.2 © 2008-2014 @ PPK
[ Time : 0.018s | 16 Queries | GZIP : On ]

Торрент трекер RUTOR.IN, Не можете зайти на rutor.org? Какой новый адрес рутор? Какое зеркало рутор? Не работает rutor.org и зеркала? Тогда наш торрент специально для вас. Rutor.in неофициальное зеркало rutor. В случае если у Вас заблокирован rutor или вдруг Вы не можете на него зайти, то Вы без труда сможете скачать бесплатно и без рекламы последние новинки кино, игр, сериалов и прочего у нас, на Rutor.in. Не нужно использовать прокси, чтобы зайти на рутор, достаточно воспользоваться нашим ресурсом. Все новые фильмы, игры, сериалы, книги и музыка за 2013 и 2014 годы через торрент бесплатно. Скачивайте фильмы в хорошем качестве, игры для пк, xbox, playstation без регистрации. У нас вы найдете новые Зарубежные сериалы и Русские сериалы 2013, 2014, 2015 годов. Оставайтесь с нами, качайте любимые фильмы, игры, сериалы, книги и музыку.