img image001 image001 image001 image001 image001 image001 image001 image001 image001 image001 image001 image001 image001 image001 image001

Planets Sun Sun Sun
Статистика раздачи
Автор: PriZraK | Размер: 2.79 ГБ | Добавлен: 15 фев 2014
Раздают: 458    Качают: 15
Скачать торрент
Скачать торрент
Описание торрента

СообщениеДобавлено: 15 фев 2014 


В поисках Немо / Finding Nemo (2003) BDRip 720p
от DHT-Movies



Название: В поисках Немо
Оригинальное название: Finding Nemo
Год выхода: 2003
Жанр: Мультфильм, комедия, приключения, семейный
Режиссер: Эндрю Стэнтон, Ли Анкрич



В ролях:

Альберт Брукс, Эллен ДеДженерес, Александр Гулд, Уиллем Дефо, Эллисон Дженни, Джо Рэнфт, Джеффри Раш, Элизабет Перкинс, Эрик Бана, Эндрю Стэнтон

Описание:

Среди прекрасных тропических морских стихий, в районе Большого барьерного рифа в уединении живет рыба-клоун по имени Марлин. Он растит своего единственного сыночка Немо. Океан и существующие в нем опасности очень страшат Марлина, и он как может ограждает сына от них, но молодой Немо, страдающий излишним любопытством, очень хочет разузнать побольше о таинственном рифе, рядом с которым они живут.
Когда Немо по иронии судьбы оказывается вдалеке от дома, да и еще сталкивается с угрозой стать обедом рыбы-танка, Марлин отправляется на поиски сына. Но Марлин, конечно же, понимает, что героический спасатель из него не получится и просит о помощи в поисках, Дори, королевскую синюю рыбу, которая хоть и страдает от того, что почти ничего не помнит, но добрее ее не отыскать во всем безбрежном океане!
Итак, наши герои отправляются в путешествие, в котором их подкарауливают многочисленные трудности и опасности…


Страна: США
Продолжительность: 01:40:54
Перевод: Дубляж (Профессиональный) [Лицензия] + Оригинал (Английский)
Субтитры: Русские / Английские UTF-8 (full)

Релиз группа: | by Dean24


Качество: BDRip 720p | BDRemux 1080p
Формат: MKV
Видео кодек: H.264
Видео: 1280x720/16:9/23.976 fps/3060 Kbps/0.138 Bits/(Pixel*Frame)
Аудио (Русский): 48 kHz, AC3 Dolby Digital, 3/2 (L,C,R,l,r) + LFE ch, ~ 448 kbps avg | (Дубляж)
Аудио (Английский): 48 kHz, AC3 Dolby Digital, 3/2 (L,C,R,l,r) + LFE ch, ~ 448 kbps avg | (Оригинал)



avs [info]: 1280x720p 1:1 @ 2500000/104271 fps (cfr)
x264 [info]: using SAR=1/1
x264 [info]: using cpu capabilities: MMX2 SSE2Fast SSSE3 Cache64
x264 [info]: profile Main, level 4.1
x264 [info]: frame I:1099 Avg QP:17.26 size: 97700
x264 [info]: frame P:38536 Avg QP:20.45 size: 30262
x264 [info]: frame B:105515 Avg QP:22.22 size: 9652
x264 [info]: consecutive B-frames: 4.7% 3.6% 10.5% 39.8% 16.5% 21.4% 3.0% 0.6%
x264 [info]: mb I I16..4: 37.2% 0.0% 62.8%
x264 [info]: mb P I16..4: 36.1% 0.0% 0.0% P16..4: 43.3% 0.0% 0.0% 0.0% 0.0% skip:20.5%
x264 [info]: mb B I16..4: 7.0% 0.0% 0.0% B16..8: 26.3% 0.0% 0.0% direct:11.3% skip:55.4% L0:35.8% L1:41.4% BI:22.8%
x264 [info]: final ratefactor: 19.56
x264 [info]: direct mvs spatial:99.3% temporal:0.7%
x264 [info]: coded y,uvDC,uvAC intra: 40.0% 44.1% 14.0% inter: 16.8% 16.0% 1.6%
x264 [info]: i16 v,h,dc,p: 27% 33% 23% 17%
x264 [info]: i4 v,h,dc,ddl,ddr,vr,hd,vl,hu: 19% 22% 12% 8% 8% 7% 9% 7% 8%
x264 [info]: i8c dc,h,v,p: 49% 25% 17% 8%
x264 [info]: Weighted P-Frames: Y:5.8% UV:3.5%
x264 [info]: kb/s:3028.71

x264 [total]: encoded 145150 frames, 1.64 fps, 3028.71 kb/s
_________________________________________

Общее:
Уникальный идентификатор: 193683682889252084723859160601840446216 (0x91B61ED691A1E78B89BF0A8B5DA1EB08)
Полное имя: D:Для сайтаRip'sFinding_Nemo_BDRip_720p_ot_DHT-Movies.mkv
Формат: Matroska
Версия формата: Version 4 / Version 2
Размер файла: 2,79 Гбайт
Продолжительность: 1 ч. 41 м.
Общий поток: 3954 Кбит/сек
Дата кодирования: UTC 2013-12-14 11:51:25
Программа кодирования: mkvmerge v6.5.0 ('Isn't she lovely') built on Oct 20 2013 12:50:05
Библиотека кодирования: libebml v1.3.0 + libmatroska v1.4.1

Видео:
Идентификатор: 1
Формат: AVC
Формат/Информация: Advanced Video Codec
Профиль формата: High@L4.1
Параметр CABAC формата: Да
Параметр ReFrames формата: 9 кадров
Идентификатор кодека: V_MPEG4/ISO/AVC
Продолжительность: 1 ч. 41 м.
Битрейт: 3060 Кбит/сек
Ширина: 1280 пикселей
Высота: 720 пикселей
Соотношение сторон: 16:9
Режим частоты кадров: Постоянный
Частота кадров: 23,976 кадра/сек
Цветовое пространство: YUV
Субдискретизация насыщенности: 4:2:0
Битовая глубина: 8 бит
Тип развёртки: Прогрессивная
Бит/(Пиксели*Кадры): 0.138
Размер потока: 2,10 Гбайт (75%)
Библиотека кодирования : x264 core 119 r2106 07efeb4
Настройки программы: cabac=1 / ref=9 / deblock=1:-1:-1 / analyse=0x3:0x133 / me=umh / subme=10 / psy=1 / psy_rd=0.85:0.10 / mixed_ref=1 / me_range=32 / chroma_me=1 / trellis=2 / 8x8dct=1 / cqm=0 / deadzone=21,11 / fast_pskip=0 / chroma_qp_offset=0 / threads=3 / sliced_threads=0 / nr=0 / decimate=1 / interlaced=0 / bluray_compat=0 / constrained_intra=0 / bframes=7 / b_pyramid=2 / b_adapt=2 / b_bias=0 / direct=3 / weightb=1 / open_gop=0 / weightp=2 / keyint=240 / keyint_min=23 / scenecut=40 / intra_refresh=0 / rc_lookahead=50 / rc=2pass / mbtree=1 / bitrate=3060 / ratetol=1.0 / qcomp=0.60 / qpmin=0 / qpmax=69 / qpstep=4 / cplxblur=20.0 / qblur=0.5 / ip_ratio=1.40 / aq=1:0.80
Default: Да
Forced: Нет

Аудио #1:
Идентификатор: 2
Формат: AC-3
Формат/Информация: Audio Coding 3
Расширение режима: CM (complete main)
Параметр Endianness формата: Big
Идентификатор кодека: A_AC3
Продолжительность: 1 ч. 41 м.
Вид битрейта: Постоянный
Битрейт: 448 Кбит/сек
Каналы: 6 каналов
Расположение каналов: Front: L C R, Side: L R, LFE
Частота: 48,0 КГц
Битовая глубина: 16 бит
Метод сжатия: С потерями
Размер потока: 324 Мбайт (11%)
Default: Да
Forced: Нет

Аудио #2:
Идентификатор: 3
Формат: AC-3
Формат/Информация: Audio Coding 3
Расширение режима: CM (complete main)
Параметр Endianness формата: Big
Идентификатор кодека: A_AC3
Продолжительность: 1 ч. 41 м.
Вид битрейта: Постоянный
Битрейт: 448 Кбит/сек
Каналы: 6 каналов
Расположение каналов: Front: L C R, Side: L R, LFE
Частота: 48,0 КГц
Битовая глубина: 16 бит
Метод сжатия: С потерями
Размер потока: 324 Мбайт (11%)
Default: Нет
Forced: Нет

Текст #1:
Идентификатор: 4
Формат: UTF-8
Идентификатор кодека: S_TEXT/UTF8
Идентификатор кодека/Информация: UTF-8 Plain Text
Default: Да
Forced: Нет

Текст #2:
Идентификатор: 5
Формат: UTF-8
Идентификатор кодека: S_TEXT/UTF8
Идентификатор кодека/Информация: UTF-8 Plain Text
Default: Нет
Forced: Нет




   Похожие торренты   Торрент   Размер 
В этой теме нет новых непрочитанных сообщений. В поисках Немо / Finding Nemo (2003) BDRip 720p | D, P, A

12 | 22

5.77 ГБ

В этой теме нет новых непрочитанных сообщений. В поисках Немо / Finding Nemo (2003) BDRip 720p

168 | 6

4.36 ГБ

В этой теме нет новых непрочитанных сообщений. В поисках Немо / Finding Nemo (2003) BDRip 720p от HQ-ViDEO

16 | 5

6.22 ГБ

В этой теме нет новых непрочитанных сообщений. В Поисках Немо / Finding Nemo (2003) BDRip-720p | Дополнительные материалы

5 | 5

1.85 ГБ

В этой теме нет новых непрочитанных сообщений. В поисках Немо / Finding Nemo (2003) BDRip 720p от Leonardo and Scarabey | Лицензия

417 | 33

3.88 ГБ

В этой теме нет новых непрочитанных сообщений. В поисках Немо / Finding Nemo (2003) BDRip

2223 | 103

1.45 ГБ

В этой теме нет новых непрочитанных сообщений. В поисках Немо / Finding Nemo (2003) BDRip-AVC (PROPER)

182 | 8

1.45 ГБ




Вы не можете начинать темы
Вы не можете отвечать на сообщения
Вы не можете редактировать свои сообщения
Вы не можете удалять свои сообщения
Вы не можете добавлять вложения

Перейти:  
Для Мосгорсуда, Роскомнадзора и рекламодателей: mosgorsud-torrent[собачка]yandex.ru
 Вход
ppkBB3cker v.2 © 2008-2014 @ PPK
[ Time : 0.028s | 16 Queries | GZIP : On ]

Торрент трекер RUTOR.IN, Не можете зайти на rutor.org? Какой новый адрес рутор? Какое зеркало рутор? Не работает rutor.org и зеркала? Тогда наш торрент специально для вас. Rutor.in неофициальное зеркало rutor. В случае если у Вас заблокирован rutor или вдруг Вы не можете на него зайти, то Вы без труда сможете скачать бесплатно и без рекламы последние новинки кино, игр, сериалов и прочего у нас, на Rutor.in. Не нужно использовать прокси, чтобы зайти на рутор, достаточно воспользоваться нашим ресурсом. Все новые фильмы, игры, сериалы, книги и музыка за 2013 и 2014 годы через торрент бесплатно. Скачивайте фильмы в хорошем качестве, игры для пк, xbox, playstation без регистрации. У нас вы найдете новые Зарубежные сериалы и Русские сериалы 2013, 2014, 2015 годов. Оставайтесь с нами, качайте любимые фильмы, игры, сериалы, книги и музыку.