img image001 image001 image001 image001 image001 image001 image001 image001 image001 image001 image001 image001 image001 image001 image001

Planets Sun Sun Sun
Статистика раздачи
Автор: PriZraK | Размер: 1.44 ГБ | Добавлен: 15 фев 2014
Раздают: 20    Качают: 2
Скачать торрент
Скачать торрент
Описание торрента

СообщениеДобавлено: 15 фев 2014 


Русское название: Спасти Санту
Оригинальное название: Saving Santa



Год выпуска: 2013 г.
Жанр: мультфильм, мюзикл, комедия, приключения, семейный

Режиссер: Леон Джусен, Аарон Силман / Leon Joosen, Aaron Seelman

В ролях: Ньюэлл Александр, Ноэль Кларк, Джоан Коллинз, Тим Конуэй, Дэвид Кауджилл, Тим Карри, Холли Дорфф, Муси Дриер, Пэм Феррис, Мартин Фриман

Описание: Эльф Бернард — очень мил, весел, и… слегка несерьёзен. Но ему придется измениться, ведь у него впереди потрясающее и очень опасное приключение! Кто-то собирается похитить Санту и его волшебные сани, в которых можно перемещаться в разные эпохи. А без Санты Новый год никогда не наступит! Бернарду придётся переместиться во времени, сразиться со злодеем, остановить его армию, изменить прошлое, спасти Новый год и стать настоящим героем!



Производство: Великобритания, США
Продолжительность: 01:23:47
Перевод: Профессиональный (полное дублирование)

Файл
Качество видео: BDRip-AVC
Контейнер: MKV
Видео кодек: H.264
Аудио кодек: AC3
Видео: MPEG4 Video (H264) 1008x544 23.976fps 2084 Kbps
Аудио: Dolby AC3 48000Hz 6ch 384 Kbps
Общее
Уникальный идентификатор : 173678042849991926801752189820656012921 (0x82A92CA198334F77B773C31C4581CE79)
Полное имя : F:Spasti.Santu.2013.H.264.BDRip-AVC.JRG.mkv
Формат : Matroska
Версия формата : Version 4 / Version 2
Размер файла : 1,44 Гбайт
Продолжительность : 1 ч. 23 м.
Общий поток : 2468 Кбит/сек
Дата кодирования : UTC 2013-12-15 00:47:32
Программа кодирования : mkvmerge v6.3.0 ('You can't stop me!') built on Jun 28 2013 20:09:41
Библиотека кодирования : libebml v1.3.0 + libmatroska v1.4.0

Видео
Идентификатор : 1
Формат : AVC
Формат/Информация : Advanced Video Codec
Профиль формата : High@L4.1
Параметр CABAC формата : Да
Параметр ReFrames формата : 7 кадров
Идентификатор кодека : V_MPEG4/ISO/AVC
Продолжительность : 1 ч. 23 м.
Битрейт : 2084 Кбит/сек
Ширина : 1008 пикселей
Высота : 544 пикселя
Соотношение сторон : 1,85:1
Режим частоты кадров : Постоянный
Частота кадров : 23,976 кадра/сек
Цветовое пространство : YUV
Субдискретизация насыщенности : 4:2:0
Битовая глубина : 8 бит
Тип развёртки : Прогрессивная
Бит/(Пиксели*Кадры) : 0.159
Размер потока : 1,19 Гбайт (82%)
Библиотека кодирования : x264 core 130 r2273 b3065e6
Настройки программы : cabac=1 / ref=7 / deblock=1:-1:-1 / analyse=0x3:0x133 / me=umh / subme=10 / psy=1 / psy_rd=1.00:0.15 / mixed_ref=0 / me_range=24 / chroma_me=1 / trellis=2 / 8x8dct=1 / cqm=0 / deadzone=21,11 / fast_pskip=0 / chroma_qp_offset=-3 / threads=3 / lookahead_threads=1 / sliced_threads=0 / nr=0 / decimate=1 / interlaced=0 / bluray_compat=0 / constrained_intra=0 / bframes=6 / b_pyramid=2 / b_adapt=2 / b_bias=0 / direct=3 / weightb=1 / open_gop=0 / weightp=2 / keyint=250 / keyint_min=23 / scenecut=40 / intra_refresh=0 / rc_lookahead=50 / rc=2pass / mbtree=1 / bitrate=2084 / ratetol=1.0 / qcomp=0.60 / qpmin=0 / qpmax=69 / qpstep=4 / cplxblur=20.0 / qblur=0.5 / ip_ratio=1.40 / aq=1:1.00
Default : Да
Forced : Нет

Аудио
Идентификатор : 2
Формат : AC-3
Формат/Информация : Audio Coding 3
Расширение режима : CM (complete main)
Параметр Endianness формата : Big
Идентификатор кодека : A_AC3
Продолжительность : 1 ч. 23 м.
Вид битрейта : Постоянный
Битрейт : 384 Кбит/сек
Каналы : 6 каналов
Расположение каналов : Front: L C R, Side: L R, LFE
Частота : 48,0 КГц
Битовая глубина : 16 бит
Метод сжатия : С потерями
Размер потока : 230 Мбайт (16%)
Язык : Russian
Default : Да
Forced : Нет





Релиз от:



   Похожие торренты   Торрент   Размер 
В этой теме нет новых непрочитанных сообщений. Спасти Санту / Saving Santa (2013) BDRip-AVC от ExKinoRay | Лицензия

22 | 2

2.14 ГБ

В этой теме нет новых непрочитанных сообщений. Спасти Санту / Saving Santa (2013) BDRip от HQCLUB | Лицензия

594 | 10

1.45 ГБ

В этой теме нет новых непрочитанных сообщений. Спасти Санту / Saving Santa (2013) BDRip 720p от HELLYWOOD | Лицензия

64 | 4

2.19 ГБ

В этой теме нет новых непрочитанных сообщений. Спасти Санту / Saving Santa (2013) BDRip 720p от leonardo 59 & Scarabey | Лицензия

34 | 3

2.17 ГБ

В этой теме нет новых непрочитанных сообщений. Спасти Санту / Saving Santa (2013) HDRip | Лицензия

312 | 13

1.37 ГБ

В этой теме нет новых непрочитанных сообщений. Спасти Санту / Saving Santa (2013) HDRip | Лицензия

83 | 16

746 МБ

В этой теме нет новых непрочитанных сообщений. Спасти Санту / Saving Santa (2013) DVD5 R5 от New-Team | D | лицензия

8 | 2

4.13 ГБ




Вы не можете начинать темы
Вы не можете отвечать на сообщения
Вы не можете редактировать свои сообщения
Вы не можете удалять свои сообщения
Вы не можете добавлять вложения

Перейти:  
Для Мосгорсуда, Роскомнадзора и рекламодателей: mosgorsud-torrent[собачка]yandex.ru
 Вход
ppkBB3cker v.2 © 2008-2014 @ PPK
[ Time : 0.049s | 14 Queries | GZIP : Off ]

Торрент трекер RUTOR.IN, Не можете зайти на rutor.org? Какой новый адрес рутор? Какое зеркало рутор? Не работает rutor.org и зеркала? Тогда наш торрент специально для вас. Rutor.in неофициальное зеркало rutor. В случае если у Вас заблокирован rutor или вдруг Вы не можете на него зайти, то Вы без труда сможете скачать бесплатно и без рекламы последние новинки кино, игр, сериалов и прочего у нас, на Rutor.in. Не нужно использовать прокси, чтобы зайти на рутор, достаточно воспользоваться нашим ресурсом. Все новые фильмы, игры, сериалы, книги и музыка за 2013 и 2014 годы через торрент бесплатно. Скачивайте фильмы в хорошем качестве, игры для пк, xbox, playstation без регистрации. У нас вы найдете новые Зарубежные сериалы и Русские сериалы 2013, 2014, 2015 годов. Оставайтесь с нами, качайте любимые фильмы, игры, сериалы, книги и музыку.