img image001 image001 image001 image001 image001 image001 image001 image001 image001 image001 image001 image001 image001 image001 image001

Planets Sun Sun Sun
Статистика раздачи
Автор: PriZraK | Размер: 11.54 ГБ | Добавлен: 15 фев 2014
Раздают: 158    Качают: 14
Скачать торрент
Скачать торрент
Описание торрента

СообщениеДобавлено: 15 фев 2014 




Информация о фильме
Название: Последняя фантазия: Духи внутри
Оригинальное название: Final Fantasy: The Spirits Within
Год выпуска: 2001
Жанр: Мультфильм, фантастика, фэнтези, боевик, триллер, приключения, полнометражный
Выпущено: США, Япония
Режиссер: Хиронобу Сакагути, Мото Сакакибара
В ролях: Минг-На, Алек Болдуин, Винг Рэймс, Стив Бушеми, Пери Гилпин, Дональд Сазерленд, Джеймс Вудс, Кейт Дэвид, Жан Симмонс, Мэтт МакКензи, Джон ДеМита, Алекс Фернандез, Дэвид Рэснер, Дуайт Шульц, Энни Ву


Перевод:Дублированный, Многоголосый закадровый, Авторский


Сюжет фильма

Земля, год 2065... Планета в страшной опасности. На родину человечества напали монстры-фантомы из космоса, которым невозможно противостоять. Полупрозрачные чудовища, более похожие на порождения галлюцинирующего мозга, уже истребили большую часть человечества, и скоро их господство над Землей станет полным. Судьба мира в руках горстки смельчаков - ученой Аки Росс, доктора Сиди и техноспецназа капитана Эдвардса, вступающих в последнее сражение с инопланетной нечистью.

Эта мультипликация, стала прорывом в компьютерном моделировании нарисованных персонажей. Такой детализации не создавалось ранее.



Файл
Качество: BDRip 1080p (исходник Blu-ray)
Видео: 1916x1036, 11119 Кбит/сек, 23,976 кадр/сек, AVC, x264, High@L4.1, 0.234 Бит/[Пиксели*Кадры], 2pass
Аудио 1: AC-3, 640 Кбит/сек, 6 канала(ов), 48,0 КГц - Дублированный
Аудио 2: AC-3, 640 Кбит/сек, 6 канала(ов), 48,0 КГц - Многоголосый закадровый, Blu-ray CEE
Аудио 3: AC-3, 640 Кбит/сек, 6 канала(ов), 48,0 КГц - Многоголосый закадровый, Карусель
Аудио 4: AC-3, 640 Кбит/сек, 6 канала(ов), 48,0 КГц - Авторский Дмитрий «Гоблин» Пучков
Аудио 5: AC-3, 640 Кбит/сек, 6 канала(ов), 48,0 КГц - Авторский П. Гланц
Аудио 6: AC-3, 640 Кбит/сек, 6 канала(ов), 48,0 КГц - Авторский Ю. Живов
Аудио 7: AC-3, 640 Кбит/сек, 6 канала(ов), 48,0 КГц - English

Чаптеры: есть
Субтитры: Русские (форсированные), Русские (Вита Алая)
Продолжительность: 01:45:58



Автор Рипа:









Format : Matroska
Format version : Version 2
File size : 11.5 GiB
Duration : 1h 45mn
Overall bit rate : 15.6 Mbps
Movie name : Последняя фантазия: Духи внутри.(2001).BDRip.1080p.[denis100]
Encoded date : UTC 2013-12-15 11:05:21
Writing application : mkvmerge v5.8.0 ('No Sleep / Pillow') built on Sep 2 2012 15:37:04
Writing library : libebml v1.2.3 + libmatroska v1.3.0

Video
ID : 1
Format : AVC
Format/Info : Advanced Video Codec
Format profile : High@L4.1
Format settings, CABAC : Yes
Format settings, ReFrames : 4 frames
Codec ID : V_MPEG4/ISO/AVC
Duration : 1h 45mn
Bit rate : 11.1 Mbps
Width : 1 916 pixels
Height : 1 036 pixels
Display aspect ratio : 1.85:1
Frame rate mode : Constant
Frame rate : 23.976 fps
Color space : YUV
Chroma subsampling : 4:2:0
Bit depth : 8 bits
Scan type : Progressive
Bits/(Pixel*Frame) : 0.234
Stream size : 8.00 GiB (69%)
Title : Последняя фантазия: Духи внутри.(2001).BDRip.1080p.[denis100]
Writing library : x264 core 140 r2377 1ca7bb9
Encoding settings : cabac=1 / ref=4 / deblock=1:-1:-1 / analyse=0x3:0x133 / me=umh / subme=11 / psy=1 / psy_rd=1.00:0.10 / mixed_ref=1 / me_range=32 / chroma_me=1 / trellis=2 / 8x8dct=1 / cqm=0 / deadzone=21,11 / fast_pskip=0 / chroma_qp_offset=-3 / threads=6 / lookahead_threads=1 / sliced_threads=0 / nr=0 / decimate=0 / interlaced=0 / bluray_compat=0 / constrained_intra=0 / bframes=7 / b_pyramid=2 / b_adapt=2 / b_bias=0 / direct=3 / weightb=1 / open_gop=0 / weightp=2 / keyint=240 / keyint_min=23 / scenecut=40 / intra_refresh=0 / rc=2pass / mbtree=0 / bitrate=11119 / ratetol=1.0 / qcomp=0.60 / qpmin=0 / qpmax=69 / qpstep=4 / cplxblur=20.0 / qblur=0.5 / ip_ratio=1.40 / pb_ratio=1.30 / aq=1:0.90
Language : English
Default : Yes
Forced : No

Audio #1
ID : 2
Format : AC-3
Format/Info : Audio Coding 3
Mode extension : CM (complete main)
Format settings, Endianness : Big
Codec ID : A_AC3
Duration : 1h 45mn
Bit rate mode : Constant
Bit rate : 640 Kbps
Channel count : 6 channels
Channel positions : Front: L C R, Side: L R, LFE
Sampling rate : 48.0 KHz
Bit depth : 16 bits
Compression mode : Lossy
Stream size : 485 MiB (4%)
Title : Дубляж
Language : Russian
Default : Yes
Forced : No

Audio #2
ID : 3
Format : AC-3
Format/Info : Audio Coding 3
Mode extension : CM (complete main)
Format settings, Endianness : Big
Codec ID : A_AC3
Duration : 1h 45mn
Bit rate mode : Constant
Bit rate : 640 Kbps
Channel count : 6 channels
Channel positions : Front: L C R, Side: L R, LFE
Sampling rate : 48.0 KHz
Bit depth : 16 bits
Compression mode : Lossy
Stream size : 485 MiB (4%)
Title : Многоголосый закадровый, Blu-ray CEE
Language : Russian
Default : No
Forced : No

Audio #3
ID : 4
Format : AC-3
Format/Info : Audio Coding 3
Mode extension : CM (complete main)
Format settings, Endianness : Big
Codec ID : A_AC3
Duration : 1h 45mn
Bit rate mode : Constant
Bit rate : 640 Kbps
Channel count : 6 channels
Channel positions : Front: L C R, Side: L R, LFE
Sampling rate : 48.0 KHz
Bit depth : 16 bits
Compression mode : Lossy
Stream size : 485 MiB (4%)
Title : Многоголосый закадровый, Карусель
Language : Russian
Default : No
Forced : No

Audio #4
ID : 5
Format : AC-3
Format/Info : Audio Coding 3
Mode extension : CM (complete main)
Format settings, Endianness : Big
Codec ID : A_AC3
Duration : 1h 45mn
Bit rate mode : Constant
Bit rate : 640 Kbps
Channel count : 6 channels
Channel positions : Front: L C R, Side: L R, LFE
Sampling rate : 48.0 KHz
Bit depth : 16 bits
Compression mode : Lossy
Stream size : 485 MiB (4%)
Title : Авторский Дмитрий «Гоблин» Пучков
Language : Russian
Default : No
Forced : No

Audio #5
ID : 6
Format : AC-3
Format/Info : Audio Coding 3
Mode extension : CM (complete main)
Format settings, Endianness : Big
Codec ID : A_AC3
Duration : 1h 45mn
Bit rate mode : Constant
Bit rate : 640 Kbps
Channel count : 6 channels
Channel positions : Front: L C R, Side: L R, LFE
Sampling rate : 48.0 KHz
Bit depth : 16 bits
Compression mode : Lossy
Stream size : 485 MiB (4%)
Title : Авторский П. Гланц
Language : Russian
Default : No
Forced : No

Audio #6
ID : 7
Format : AC-3
Format/Info : Audio Coding 3
Mode extension : CM (complete main)
Format settings, Endianness : Big
Codec ID : A_AC3
Duration : 1h 45mn
Bit rate mode : Constant
Bit rate : 640 Kbps
Channel count : 6 channels
Channel positions : Front: L C R, Side: L R, LFE
Sampling rate : 48.0 KHz
Bit depth : 16 bits
Compression mode : Lossy
Stream size : 485 MiB (4%)
Title : Авторский Ю. Живов
Language : Russian
Default : No
Forced : No

Audio #7
ID : 8
Format : AC-3
Format/Info : Audio Coding 3
Mode extension : CM (complete main)
Format settings, Endianness : Big
Codec ID : A_AC3
Duration : 1h 45mn
Bit rate mode : Constant
Bit rate : 640 Kbps
Channel count : 6 channels
Channel positions : Front: L C R, Side: L R, LFE
Sampling rate : 48.0 KHz
Bit depth : 16 bits
Compression mode : Lossy
Stream size : 485 MiB (4%)
Title : English
Language : English
Default : No
Forced : No

Text #1
ID : 9
Format : UTF-8
Codec ID : S_TEXT/UTF8
Codec ID/Info : UTF-8 Plain Text
Title : Русские форсированные
Language : Russian
Default : Yes
Forced : No

Text #2
ID : 10
Format : UTF-8
Codec ID : S_TEXT/UTF8
Codec ID/Info : UTF-8 Plain Text
Title : Русские (Вита Алая)
Language : Russian
Default : No
Forced : No

Menu
00:00:00.000 : en:00:00:00.000
00:10:02.101 : en:00:10:02.101
00:13:08.746 : en:00:13:08.746
00:17:28.380 : en:00:17:28.380
00:21:06.682 : en:00:21:06.682
00:27:43.078 : en:00:27:43.078
00:34:57.178 : en:00:34:57.178
00:41:22.271 : en:00:41:22.271
00:46:38.045 : en:00:46:38.045
00:52:41.908 : en:00:52:41.908
00:58:09.444 : en:00:58:09.444
01:03:28.721 : en:01:03:28.721
01:13:36.328 : en:01:13:36.328
01:18:43.260 : en:01:18:43.260
01:23:36.094 : en:01:23:36.094
01:30:28.464 : en:01:30:28.464




   Похожие торренты   Торрент   Размер 
В этой теме нет новых непрочитанных сообщений. Последняя фантазия: Духи внутри / Final Fantasy: The Spirits Within (2001) BDRip | D, P, P2, A

108 | 18

1.16 ГБ

В этой теме нет новых непрочитанных сообщений. Последняя фантазия: Духи внутри / Final Fantasy: The Spirits Within (2001) BDRip от HQCLUB

193 | 37

2.18 ГБ

В этой теме нет новых непрочитанных сообщений. Последняя фантазия: Духи внутри / Final Fantasy: The Spirits Within (2001) BDRip-AVC | iPhone | P

90 | 8

1.62 ГБ

В этой теме нет новых непрочитанных сообщений. Последняя фантазия: Духи внутри нас / Final Fantasy: The Spirits Within (2001) BDRip от HELLYWOOD

62 | 3

2.51 ГБ

В этой теме нет новых непрочитанных сообщений. Последняя фантазия: Духи внутри / Final Fantasy: The Spirits Within (2001) BDRip 720p | D, P, P2, A | 60 fps

92 | 19

12.07 ГБ

В этой теме нет новых непрочитанных сообщений. Последняя фантазия: Духи внутри / Final Fantasy: The Spirits Within (2001) BDRip 720p от FREEISLAND

13 | 3

6.74 ГБ

В этой теме нет новых непрочитанных сообщений. Последняя фантазия: Духи внутри / Final Fantasy: The Spirits Within (2001) DVDRip | Гоблин

46 | 8

1.37 ГБ




Вы не можете начинать темы
Вы не можете отвечать на сообщения
Вы не можете редактировать свои сообщения
Вы не можете удалять свои сообщения
Вы не можете добавлять вложения

Перейти:  
Для Мосгорсуда, Роскомнадзора и рекламодателей: mosgorsud-torrent[собачка]yandex.ru
 Вход
ppkBB3cker v.2 © 2008-2014 @ PPK
[ Time : 0.058s | 15 Queries | GZIP : Off ]

cron