img image001 image001 image001 image001 image001 image001 image001 image001 image001 image001 image001 image001 image001 image001 image001

Planets Sun Sun Sun
Статистика раздачи
Автор: PriZraK | Размер: 746.23 МБ | Добавлен: 15 фев 2014
Раздают: 244    Качают: 12
Скачать торрент
Скачать торрент
Описание торрента

СообщениеДобавлено: 15 фев 2014 



АНОНСЫ МОИХ РИПОВ! Подписываемся!


Индюки: Назад в будущее / Free Birds

Год выпуска: 2013
Страна: США / Reel FX Creative Studios, Relativity Media
Жанр: мультфильм, комедия, приключения, семейный
Продолжительность: 01:31:02
Перевод: Профессиональный (полное дублирование) [Лицензия]
Субтитры: Нет

Режиссер: Джимми Хейуорд / Jimmy Hayward

Описание:
Индюк Реджи вырос на обычной ферме, его жизнь была скучной и однообразной, как и у других птиц. Однако он отличался от сородичей тем, что умел пользоваться смекалкой и понимал, зачем его кормят. Поедание индейки на День Благодарения — знаменитая американская традиция, которая определяет смысл существования всех индюков на этой ферме. Однажды у Реджи появилась возможность кардинально изменить ситуацию: вместе с безумным приятелем Джейком они отправляются в необычное путешествие на машине времени. Основная задача — вернуться во времена, когда зарождалась традиция приготовления индейки на праздник, и изменить ход истории.



Качество: BDRip - Исходник BDRemux 1080p
Формат: AVI
Видео кодек: XviD
Аудио кодек: MP3
Видео: 656x352 (1.86:1), 23.976 fps, XviD build 73 ~1008 kbps avg, 0.18 bit/pixel
Аудио: 48 kHz, MPEG Layer 3, 2 ch, ~128.00 kbps avg

Раздача от:


D:Мои рипыFree.Birds.2013.BDRip.746mb.dexter_lex.avi
General
Complete name : D:Мои рипыFree.Birds.2013.BDRip.746mb.dexter_lex.avi
Format : AVI
Format/Info : Audio Video Interleave
File size : 746 MiB
Duration : 1h 31mn
Overall bit rate : 1 146 Kbps
Writing application : VirtualDubMod 1.5.10.3 | www.virtualdub-fr.org || (build 2550/release)
Writing library : VirtualDubMod build 2550/release
Video #0
ID : 0
Format : MPEG-4 Visual
Format profile : Advanced Simple@L5
Format settings, BVOP : 1
Format settings, QPel : No
Format settings, GMC : No warppoints
Format settings, Matrix : Custom
Codec ID : XVID
Codec ID/Hint : XviD
Duration : 1h 31mn
Bit rate : 1 009 Kbps
Width : 656 pixels
Height : 352 pixels
Display aspect ratio : 1.864
Frame rate : 23.976 fps
Color space : YUV
Chroma subsampling : 4:2:0
Bit depth : 8 bits
Scan type : Progressive
Compression mode : Lossy
Bits/(Pixel*Frame) : 0.182
Stream size : 657 MiB (88%)
Writing library : XviD 73
Audio #1
ID : 1
Format : MPEG Audio
Format version : Version 1
Format profile : Layer 3
Codec ID : 55
Codec ID/Hint : MP3
Duration : 1h 31mn
Bit rate mode : Constant
Bit rate : 128 Kbps
Channel(s) : 2 channels
Sampling rate : 48.0 KHz
Compression mode : Lossy
Stream size : 83.3 MiB (11%)
Alignment : Aligned on interleaves
Interleave, duration : 42 ms (1.00 video frame)
Interleave, preload duration : 504 ms
Writing library : LAME3.99r
Encoding settings : -m s -V 4 -q 2 -lowpass 17 -b 128




   Похожие торренты   Торрент   Размер 
В этой теме нет новых непрочитанных сообщений. Индюки: Назад в будущее / Free Birds (2013) BDRip от New-Team | Лицензия

224 | 16

1.46 ГБ

В этой теме нет новых непрочитанных сообщений. Индюки: Назад в будущее / Free Birds (2013) DVD5 R5 от New-Team | D | лицензия

19 | 4

3.93 ГБ

В этой теме нет новых непрочитанных сообщений. Индюки: Назад в будущее / Free Birds (2013) Blu-ray 1080p от New-Team и HDCLUB | D | лицензия

0 | 10

22.76 ГБ

В этой теме нет новых непрочитанных сообщений. Индюки: Назад в будущее / Free Birds (2013) BDRip-AVC от HELLYWOOD | Лицензия

45 | 4

1.46 ГБ

В этой теме нет новых непрочитанных сообщений. Индюки: Назад в будущее / Free Birds (2013) BDRip 1080p | Лицензия

117 | 15

6.96 ГБ

В этой теме нет новых непрочитанных сообщений. Индюки: Назад в будущее / Free Birds (2013) BDRip-AVC от leonardo 59 & Scarabey | Лицензия

100 | 8

2.37 ГБ

В этой теме нет новых непрочитанных сообщений. Индюки: Назад в будущее / Free Birds (2013) BDRip от HQCLUB | USA Transfer | Лицензия

698 | 42

1.45 ГБ




Вы не можете начинать темы
Вы не можете отвечать на сообщения
Вы не можете редактировать свои сообщения
Вы не можете удалять свои сообщения
Вы не можете добавлять вложения

Перейти:  
Для Мосгорсуда, Роскомнадзора и рекламодателей: mosgorsud-torrent[собачка]yandex.ru
 Вход
ppkBB3cker v.2 © 2008-2014 @ PPK
[ Time : 0.027s | 15 Queries | GZIP : Off ]

Торрент трекер RUTOR.IN, Не можете зайти на rutor.org? Какой новый адрес рутор? Какое зеркало рутор? Не работает rutor.org и зеркала? Тогда наш торрент специально для вас. Rutor.in неофициальное зеркало rutor. В случае если у Вас заблокирован rutor или вдруг Вы не можете на него зайти, то Вы без труда сможете скачать бесплатно и без рекламы последние новинки кино, игр, сериалов и прочего у нас, на Rutor.in. Не нужно использовать прокси, чтобы зайти на рутор, достаточно воспользоваться нашим ресурсом. Все новые фильмы, игры, сериалы, книги и музыка за 2013 и 2014 годы через торрент бесплатно. Скачивайте фильмы в хорошем качестве, игры для пк, xbox, playstation без регистрации. У нас вы найдете новые Зарубежные сериалы и Русские сериалы 2013, 2014, 2015 годов. Оставайтесь с нами, качайте любимые фильмы, игры, сериалы, книги и музыку.