img image001 image001 image001 image001 image001 image001 image001 image001 image001 image001 image001 image001 image001 image001 image001

Planets Sun Sun Sun
Статистика раздачи
Автор: PriZraK | Размер: 2.8 ГБ | Добавлен: 15 фев 2014
Раздают: 1234    Качают: 43
Скачать торрент
Скачать торрент
Описание торрента

СообщениеДобавлено: 15 фев 2014 


Как поймать перо Жар-Птицы
«Старая сказка на новый лад»




Страна: Россия
Студия: Кинокомпания CTB, Инлэй Фильм
Жанр: мультфильм, фэнтези
Год выпуска: 2013
Продолжительность: 01:08:40

Оригинальная аудиодорожка: русский оригинальный [лицензия / BD RUS]
Русские субтитры: нет
Режиссер: Георгий Гитис, Вячеслав Плотников
Роли озвучивали: Михаил Озеров, Дмитрий Дюжев, Юлия Савичева, Андрей Леонов, Нонна Гришаева, Алексей Колган, Михаил Хрусталев, Анатолий Петров, Дмитрий Поляновский, Юлия Галдун, Владимир Горбунов, Валентина Рычагова



Во исполнение воли царя Берендея, младший сын его Иван отправляется на поиски диковинной Жар-птицы. В поисках удачи Ивана Царевича сопровождает верный друг и помощник — Серый Волк, который, обладает всевозможными навыками и всегда спешит на помощь простодушному Ивану. Героев ждут увлекательные и опасные приключения, козни коварных братьев Ивана и его судьбоносная встреча с Еленой Прекрасной. Юные зрители погрузятся в волшебный мир русской сказки, с её традициями и характерной эстетикой, причудливо перемежающейся с приметами современного жанрового кино. Ну, а родители оценят актуальный юмор и модную современную музыку, написанную специально для фильма популярными рок-музыкантами.


Тип релиза: BDRip 1080p (исходник: Как поймать перо Жар-Птицы (2013) Blu-ray 1080p AVC LPCM 5.1)
Контейнер: MKV
Видео кодек: x264
Аудио кодек: AC3
Видео: AVC / High@L4.1 / 2 pass / 24,000 fps / 1920x1080p (16:9) / 5,2 Mbps / 0.104
Аудио: AC3 / 5.1 ch / 640 kbps / Русский оригинальный, BD RUS
Субтитры: нет
Дополнительно: Сохранены оригинальные чаптеры (главы) как на Blu-ray


Раздача от:


АНОНСЫ МОИХ РАЗДАЧ!











x264 [info]: frame I:1064 Avg QP:11.56 size:192920
x264 [info]: frame P:30825 Avg QP:15.69 size: 48386
x264 [info]: frame B:67005 Avg QP:16.02 size: 14638

Общее
Уникальный идентификатор : 197852307737826540537073166100235900475 (0x94D8F7E950657EBCBE3DD6FE126D563B)
Полное имя : F:Скачка торрентKak.poymat.pero.Zhar.Ptitsy.2013.BDRip1080p(Killbrain)_[scarabey.org].mkv
Формат : Matroska
Версия формата : Version 2
Размер файла : 2,80 Гбайт
Продолжительность : 1 ч. 8 м.
Общий поток : 5840 Кбит/сек
Название фильма : Kak poymat pero Zhar-Ptitsy (2013) by Killbrain
Дата кодирования : UTC 2013-12-17 14:52:49
Программа кодирования : mkvmerge v5.8.0 ('No Sleep / Pillow') built on Sep 2 2012 15:37:04
Библиотека кодирования : libebml v1.2.3 + libmatroska v1.3.0

Видео
Идентификатор : 1
Формат : AVC
Формат/Информация : Advanced Video Codec
Профиль формата : High@L4.1
Параметр CABAC формата : Да
Параметр ReFrames формата : 4 кадра
Идентификатор кодека : V_MPEG4/ISO/AVC
Продолжительность : 1 ч. 8 м.
Битрейт : 5200 Кбит/сек
Ширина : 1920 пикселей
Высота : 1080 пикселей
Соотношение сторон : 16:9
Режим частоты кадров : Постоянный
Частота кадров : 24,000 кадра/сек
Цветовое пространство : YUV
Субдискретизация насыщенности : 4:2:0
Битовая глубина : 8 бит
Тип развёртки : Прогрессивная
Бит/(Пиксели*Кадры) : 0.104
Размер потока : 2,44 Гбайт (87%)
Заголовок : Kak poymat pero Zhar-Ptitsy (2013)
Библиотека кодирования : x264 core 138 r2358 9e941d1
Настройки программы : cabac=1 / ref=4 / deblock=1:-2:-2 / analyse=0x3:0x113 / me=umh / subme=10 / psy=1 / psy_rd=1.00:0.40 / mixed_ref=1 / me_range=32 / chroma_me=1 / trellis=2 / 8x8dct=1 / cqm=0 / deadzone=21,11 / fast_pskip=0 / chroma_qp_offset=-4 / threads=3 / lookahead_threads=1 / sliced_threads=0 / nr=0 / decimate=0 / interlaced=0 / bluray_compat=0 / constrained_intra=0 / bframes=6 / b_pyramid=2 / b_adapt=2 / b_bias=0 / direct=3 / weightb=1 / open_gop=0 / weightp=2 / keyint=240 / keyint_min=24 / scenecut=40 / intra_refresh=0 / rc_lookahead=60 / rc=2pass / mbtree=0 / bitrate=5200 / ratetol=1.0 / qcomp=0.65 / qpmin=0 / qpmax=69 / qpstep=4 / cplxblur=20.0 / qblur=0.5 / vbv_maxrate=40000 / vbv_bufsize=30000 / nal_hrd=none / ip_ratio=1.40 / pb_ratio=1.30 / aq=1:0.80
Язык : Russian
Default : Да
Forced : Нет

Аудио
Идентификатор : 2
Формат : AC-3
Формат/Информация : Audio Coding 3
Расширение режима : CM (complete main)
Параметр Endianness формата : Big
Идентификатор кодека : A_AC3
Продолжительность : 1 ч. 8 м.
Вид битрейта : Постоянный
Битрейт : 640 Кбит/сек
Каналы : 6 каналов
Расположение каналов : Front: L C R, Side: L R, LFE
Частота : 48,0 КГц
Битовая глубина : 16 бит
Метод сжатия : С потерями
Размер потока : 314 Мбайт (11%)
Заголовок : AC3 / 5.1 ch / 640 kbps / Русский оригинальный, BD RUS
Язык : Russian
Default : Да
Forced : Нет

Меню
00:00:00.000 : :Chapter 01
00:08:01.625 : :Chapter 02
00:17:43.166 : :Chapter 03
00:25:37.250 : :Chapter 04
00:34:31.916 : :Chapter 05
00:42:31.416 : :Chapter 06
00:50:48.208 : :Chapter 07
00:59:22.708 : :Chapter 08







   Похожие торренты   Торрент   Размер 
В этой теме нет новых непрочитанных сообщений. Как поймать перо Жар-Птицы (2013) BDRip-AVC от leonardo 59 & Scarabey | Лицензия

118 | 12

867.04 МБ

В этой теме нет новых непрочитанных сообщений. Как поймать перо Жар-Птицы (2013) BDRip 720p от leonardo 59 & Scarabey | Лицензия

72 | 6

1.28 ГБ

В этой теме нет новых непрочитанных сообщений. Как поймать перо Жар-Птицы (2013) BDRip 1080p от New-Team | лицензия

107 | 7

4.37 ГБ

В этой теме нет новых непрочитанных сообщений. Как поймать перо Жар-Птицы (2013) BDRemux 1080p от New-Team | Лицензия

34 | 5

10.53 ГБ

В этой теме нет новых непрочитанных сообщений. Как поймать перо Жар-Птицы (2013) Blu-ray 1080p от HDCLUB и New-Team | Лицензия

15 | 3

11.25 ГБ

В этой теме нет новых непрочитанных сообщений. Как поймать перо Жар-Птицы (2013) BDRip 1080p

320 | 17

2.18 ГБ

В этой теме нет новых непрочитанных сообщений. Как поймать перо Жар-Птицы (2013) BDRip от HQCLUB | Лицензия

551 | 18

1.09 ГБ




Вы не можете начинать темы
Вы не можете отвечать на сообщения
Вы не можете редактировать свои сообщения
Вы не можете удалять свои сообщения
Вы не можете добавлять вложения

Перейти:  
Для Мосгорсуда, Роскомнадзора и рекламодателей: mosgorsud-torrent[собачка]yandex.ru
 Вход
ppkBB3cker v.2 © 2008-2014 @ PPK
[ Time : 0.061s | 15 Queries | GZIP : Off ]

Торрент трекер RUTOR.IN, Не можете зайти на rutor.org? Какой новый адрес рутор? Какое зеркало рутор? Не работает rutor.org и зеркала? Тогда наш торрент специально для вас. Rutor.in неофициальное зеркало rutor. В случае если у Вас заблокирован rutor или вдруг Вы не можете на него зайти, то Вы без труда сможете скачать бесплатно и без рекламы последние новинки кино, игр, сериалов и прочего у нас, на Rutor.in. Не нужно использовать прокси, чтобы зайти на рутор, достаточно воспользоваться нашим ресурсом. Все новые фильмы, игры, сериалы, книги и музыка за 2013 и 2014 годы через торрент бесплатно. Скачивайте фильмы в хорошем качестве, игры для пк, xbox, playstation без регистрации. У нас вы найдете новые Зарубежные сериалы и Русские сериалы 2013, 2014, 2015 годов. Оставайтесь с нами, качайте любимые фильмы, игры, сериалы, книги и музыку.