img image001 image001 image001 image001 image001 image001 image001 image001 image001 image001 image001 image001 image001 image001 image001

Planets Sun Sun Sun
Статистика раздачи
Автор: PriZraK | Размер: 747.14 МБ | Добавлен: 15 фев 2014
Раздают: 260    Качают: 16
Скачать торрент
Скачать торрент
Описание торрента

СообщениеДобавлено: 15 фев 2014 




Информация о фильме
Название: Злые птички
Оригинальное название: Angry Birds Toons
Год выхода: 2013
Жанр: Мультсериал

О фильме:
Мульсериал студии Rovio о мегапопулярных Злых птичках. Почему эти существа настолько злые, а Свиней называют Королевскими? Ответим на все вопросы!
Страна: США
Студия: Студия Rovio
Продолжительность: 01:12:26
Перевод: Не Требуется

Файл
Кодек: XviD 7.3
Качество: HDRip Исходник Angry Birds Toons.2013.Vol.1.1080p.BluRay.x264-PublicHD
Видео: 720x304 (2.37:1), 23.976 fps, XviD build 73 ~1240 kbps avg, 0.24 bit/pixel
Звук: 48 kHz, AC3 Dolby Digital, 2/0 (L,R) ch, ~192 kbps



Общее
Полное имя : C:UsersDeadmauvladDesktopРелизы На выкладкуAngry.Birds.Toons.2013.Vol.1.HDRip.Deadmauvlad.avi
Формат : AVI
Формат/Информация : Audio Video Interleave
Размер файла : 747 Мбайт
Продолжительность : 1 ч. 12 м.
Общий поток : 1442 Кбит/сек
Название фильма : Angry.Birds.Toons.2013.Vol.1.HDRip.Deadmauvlad
Режиссёр : Deadmauvlad
Жанр : Genre_00+
Программа кодирования : VirtualDubMod 1.5.10.3 | www.virtualdub-fr.org || (build 2550/release)
Формат оригинала/Имя : Мультфильм
Правообладатель : Deadmauvlad Team's

Видео
Идентификатор : 0
Формат : MPEG-4 Visual
Профиль формата : Advanced Simple@L5
Параметр BVOP формата : 1
Параметр QPel формата : Нет
Параметр GMC формата : Без точки перехода
Параметр матрицы формата : Default (MPEG)
Идентификатор кодека : XVID
Идентификатор кодека/Подсказка : XviD
Продолжительность : 1 ч. 12 м.
Битрейт : 1240 Кбит/сек
Ширина : 720 пикселей
Высота : 304 пикселя
Соотношение сторон : 2,35:1
Частота кадров : 23,976 кадра/сек
Цветовое пространство : YUV
Субдискретизация насыщенности : 4:2:0
Битовая глубина : 8 бит
Тип развёртки : Прогрессивная
Метод сжатия : С потерями
Бит/(Пиксели*Кадры) : 0.236
Размер потока : 643 Мбайт (86%)
Библиотека кодирования : XviD 73

Аудио
Идентификатор : 1
Формат : AC-3
Формат/Информация : Audio Coding 3
Расширение режима : CM (complete main)
Параметр Endianness формата : Big
Идентификатор кодека : 2000
Продолжительность : 1 ч. 12 м.
Вид битрейта : Постоянный
Битрейт : 192 Кбит/сек
Каналы : 2 канала
Расположение каналов : Front: L R
Частота : 48,0 КГц
Битовая глубина : 16 бит
Метод сжатия : С потерями
Размер потока : 99,5 Мбайт (13%)
Выравнивание : Разделение по промежуткам
Продолжительность промежутка : 42 мс. (1,00 видеокадр)
Время предзагрузки промежутка : 500 мс.






РИП / Релиз



   Похожие торренты   Торрент   Размер 
В этой теме нет новых непрочитанных сообщений. Злые птички / Angry Birds Toons [01-52 из 52 ] (2013-2014) 2 x DVD5 от New-Team | Лицензия

38 | 109

6.89 ГБ

В этой теме нет новых непрочитанных сообщений. Злые птички / Angry Birds Toons [27-52 из 52 ] (2013-2014) DVD5 от New-Team | Лицензия

16 | 6

3.24 ГБ

В этой теме нет новых непрочитанных сообщений. Злые птички / Angry Birds Toons [01-19 из 52] (2013) WEB-DLRip

2 | 4

615.47 МБ

В этой теме нет новых непрочитанных сообщений. Злые птички / Angry Birds Toons [01-21 из 52] (2013) WEB-DLRip

31 | 3

680.39 МБ

В этой теме нет новых непрочитанных сообщений. Злые птички / Angry Birds Toons [01-52 из 52] (2013) WEB-DL 720p | P1

633 | 210

3.77 ГБ

В этой теме нет новых непрочитанных сообщений. Злые птички / Angry Birds Toons [01-52 из 52 + Бонусы] (2013) WEB-DLRip

248 | 31

2 ГБ

В этой теме нет новых непрочитанных сообщений. Злые птички / Angry Birds Toons [01-52 из 52 + Бонусы] (2013) WEB-DL 720p

343 | 40

4.94 ГБ




Вы не можете начинать темы
Вы не можете отвечать на сообщения
Вы не можете редактировать свои сообщения
Вы не можете удалять свои сообщения
Вы не можете добавлять вложения

Перейти:  
Для Мосгорсуда, Роскомнадзора и рекламодателей: mosgorsud-torrent[собачка]yandex.ru
 Вход
ppkBB3cker v.2 © 2008-2014 @ PPK
[ Time : 0.053s | 15 Queries | GZIP : Off ]

cron