img image001 image001 image001 image001 image001 image001 image001 image001 image001 image001 image001 image001 image001 image001 image001

Planets Sun Sun Sun
Статистика раздачи
Автор: PriZraK | Размер: 4.37 ГБ | Добавлен: 15 фев 2014
Раздают: 229    Качают: 12
Скачать торрент
Скачать торрент
Описание торрента

СообщениеДобавлено: 15 фев 2014 




Информация о фильме
Название: Индюки: Назад в будущее
Оригинальное название: Free Birds
Год выхода: 2013
Жанр: мультфильм, комедия, приключения, семейный
Режиссер: Джимми Хейуорд
В ролях: Оуэн Уилсон, Вуди Харрельсон, Эми Полер, Джордж Такей, Колм Мини, Кит Дэвид, Дэн Фоглер, Джимми Хейуорд, Кейтлин Мехер, Карлос Аласраки

О фильме: Индюки Реджи и Джейк находят машину времени, чтобы отправиться на триста лет назад, дабы раз и навсегда вычеркнуть индейку из праздничного меню.



Выпущено: Relativity Media
Продолжительность: 01:31:06
Перевод: Дублированный (лицензия)

Файл
Кодек: x264
Качество: BDRip (источник: Blu-ray Disc)
Видео: 1920x1036 (1,85:1), 24 fps, 6230 kbps
Аудио: AC-3, 6 ch, 640 kbps
Скачать: сэмпл

Скриншоты

Общее
Уникальный идентификатор : 239729364498546919535390393043469685129 (0xB45A3237C8381649802A28F64B275189)
Полное имя : Free.Birds.2013.BDRip.1080p.Rus.mkv
Формат : Matroska
Версия формата : Version 2
Размер файла : 4,37 Гбайт
Продолжительность : 1 ч. 31 м.
Общий поток : 6870 Кбит/сек
Название фильма : Индюки: Назад в будущее / Free Birds (2013)
Дата кодирования : UTC 2013-12-20 03:12:19
Программа кодирования : mkvmerge v5.8.0 ('No Sleep / Pillow') built on Sep 2 2012 15:37:04
Библиотека кодирования : libebml v1.2.3 + libmatroska v1.3.0

Видео
Идентификатор : 1
Формат : AVC
Формат/Информация : Advanced Video Codec
Профиль формата : High@L4.1
Параметр CABAC формата : Да
Параметр ReFrames формата : 4 кадра
Идентификатор кодека : V_MPEG4/ISO/AVC
Продолжительность : 1 ч. 31 м.
Битрейт : 6230 Кбит/сек
Ширина : 1920 пикселей
Высота : 1036 пикселей
Соотношение сторон : 1,85:1
Режим частоты кадров : Постоянный
Частота кадров : 24,000 кадра/сек
Цветовое пространство : YUV
Субдискретизация насыщенности : 4:2:0
Битовая глубина : 8 бит
Тип развёртки : Прогрессивная
Бит/(Пиксели*Кадры) : 0.131
Размер потока : 3,88 Гбайт (89%)
Заголовок : Release by AlexKa
Библиотека кодирования : x264 core 140 r2377 1ca7bb9
Настройки программы : cabac=1 / ref=4 / deblock=1:0:0 / analyse=0x3:0x133 / me=umh / subme=11 / psy=1 / psy_rd=1.00:0.00 / mixed_ref=1 / me_range=32 / chroma_me=1 / trellis=2 / 8x8dct=1 / cqm=0 / deadzone=21,11 / fast_pskip=0 / chroma_qp_offset=-2 / threads=12 / lookahead_threads=2 / sliced_threads=0 / nr=0 / decimate=1 / interlaced=0 / bluray_compat=0 / constrained_intra=0 / bframes=7 / b_pyramid=2 / b_adapt=2 / b_bias=0 / direct=3 / weightb=1 / open_gop=0 / weightp=2 / keyint=240 / keyint_min=24 / scenecut=40 / intra_refresh=0 / rc_lookahead=240 / rc=2pass / mbtree=1 / bitrate=6230 / ratetol=1.0 / qcomp=0.60 / qpmin=0 / qpmax=69 / qpstep=4 / cplxblur=20.0 / qblur=0.5 / ip_ratio=1.40 / aq=1:1.00
Язык : English

Аудио
Идентификатор : 2
Формат : AC-3
Формат/Информация : Audio Coding 3
Расширение режима : CM (complete main)
Параметр Endianness формата : Big
Идентификатор кодека : A_AC3
Продолжительность : 1 ч. 31 м.
Вид битрейта : Постоянный
Битрейт : 640 Кбит/сек
Каналы : 6 каналов
Расположение каналов : Front: L C R, Side: L R, LFE
Частота : 48,0 КГц
Битовая глубина : 16 бит
Метод сжатия : С потерями
Размер потока : 417 Мбайт (9%)
Заголовок : Rus
Язык : Russian

Меню
00:00:00.000 : :Chapter 01
00:08:08.250 : :Chapter 02
00:15:36.666 : :Chapter 03
00:21:34.000 : :Chapter 04
00:29:59.750 : :Chapter 05
00:39:08.458 : :Chapter 06
00:45:22.541 : :Chapter 07
00:51:51.333 : :Chapter 08
00:59:07.000 : :Chapter 09
01:07:01.250 : :Chapter 10
01:15:24.416 : :Chapter 11
01:22:01.791 : :Chapter 12
01:31:06.000 : :Chapter 13
x264 [info]: frame I:1632 Avg QP:15.24 size:282501
x264 [info]: frame P:35878 Avg QP:19.60 size: 60835
x264 [info]: frame B:93683 Avg QP:24.00 size: 17205
x264 [info]: consecutive B-frames: 4.4% 6.9% 9.4% 47.2% 18.1% 9.8% 2.3% 2.0%



   Похожие торренты   Торрент   Размер 
В этой теме нет новых непрочитанных сообщений. Индюки: Назад в будущее / Free Birds (2013) BDRip 1080p | Лицензия

117 | 15

6.96 ГБ

В этой теме нет новых непрочитанных сообщений. Индюки: Назад в будущее / Free Birds (2013) BDRip-HEVC 1080p от FREEISLAND

64 | 5

2.86 ГБ

В этой теме нет новых непрочитанных сообщений. Индюки: Назад в будущее / Free Birds (2013) BDRip 1080p от Ash61 | 3D-Video | halfOU

80 | 12

6.41 ГБ

В этой теме нет новых непрочитанных сообщений. Индюки: Назад в будущее / Free Birds (2013) Blu-ray 1080p от New-Team и HDCLUB | D | лицензия

0 | 10

22.76 ГБ

В этой теме нет новых непрочитанных сообщений. Индюки: Назад в будущее / Free Birds (2013) BDRemux 1080p от ExKinoRay | Лицензия

31 | 9

11.99 ГБ

В этой теме нет новых непрочитанных сообщений. Индюки: Назад в будущее / Free Birds (2013) BDRip 720 от SuperMin

185 | 11

2.51 ГБ

В этой теме нет новых непрочитанных сообщений. Индюки: Назад в будущее / Free Birds (2013) BDRip-AVC от HELLYWOOD | Лицензия

45 | 4

1.46 ГБ




Вы не можете начинать темы
Вы не можете отвечать на сообщения
Вы не можете редактировать свои сообщения
Вы не можете удалять свои сообщения
Вы не можете добавлять вложения

Перейти:  
Для Мосгорсуда, Роскомнадзора и рекламодателей: mosgorsud-torrent[собачка]yandex.ru
 Вход
ppkBB3cker v.2 © 2008-2014 @ PPK
[ Time : 0.034s | 14 Queries | GZIP : Off ]

Торрент трекер RUTOR.IN, Не можете зайти на rutor.org? Какой новый адрес рутор? Какое зеркало рутор? Не работает rutor.org и зеркала? Тогда наш торрент специально для вас. Rutor.in неофициальное зеркало rutor. В случае если у Вас заблокирован rutor или вдруг Вы не можете на него зайти, то Вы без труда сможете скачать бесплатно и без рекламы последние новинки кино, игр, сериалов и прочего у нас, на Rutor.in. Не нужно использовать прокси, чтобы зайти на рутор, достаточно воспользоваться нашим ресурсом. Все новые фильмы, игры, сериалы, книги и музыка за 2013 и 2014 годы через торрент бесплатно. Скачивайте фильмы в хорошем качестве, игры для пк, xbox, playstation без регистрации. У нас вы найдете новые Зарубежные сериалы и Русские сериалы 2013, 2014, 2015 годов. Оставайтесь с нами, качайте любимые фильмы, игры, сериалы, книги и музыку.