img image001 image001 image001 image001 image001 image001 image001 image001 image001 image001 image001 image001 image001 image001 image001

Planets Sun Sun Sun
Статистика раздачи
Автор: PriZraK | Размер: 5.77 ГБ | Добавлен: 15 фев 2014
Раздают: 296    Качают: 19
Скачать торрент
Скачать торрент
Описание торрента

СообщениеДобавлено: 15 фев 2014 




Информация о фильме
Название: Аладдин
Оригинальное название: Aladdin
Год выхода: 1992
Жанр: мультфильм, мюзикл, фэнтези, мелодрама, комедия, приключения, семейный
Режиссер: Рон Клементс, Джон Маскер
Роли озвучивали: Скотт Венгер, Робин Уильямс, Линда Ларкин, Джонатан Фриман, Фрэнк Уэлкер, Гилберт Готтфрид, Дуглас Сил, Чарльз Адлер, Джек Эйнджел, Кори Бертон

О фильме:
В славном граде Аграба живет Аладдин, веселый воришка с золотым сердцем. Живет и не знает, что вскоре его ждет величайшее приключение в жизни. Ведь только с его помощью черный маг Джафар может овладеть невероятным сокровищем — лампой, в которой заключен исполняющий желания могущественный Джинн. И только хитроумие, смекалка и доброта Аладдина и его друзей — обезьянки Абу, принцессы Жасмин и самого Джинна способны помешать Джафару завладеть лампой и захватить власть над миром…



Выпущено: США
Продолжительность: 01:30:39
Перевод: Дублированный + Оригинал

Файл
Кодек: x264
Качество: BDRip 1080p
Видео: 1920x1040, 7828 Kbps, 23.976 fps
Аудио #1: AC-3, 6 ch, 640 kbps (Rus)
Аудио #2: AC-3, 6 ch, 640 kbps (Eng)
Субтитры: Русские (полные, форсированные, на песни), Английские (полные, песни)(спасибо NArniec)

Общее
Уникальный идентификатор : 213248325667729058722207391779722699165 (0xA06E223391DBA83B8626B6FF48FD219D)
Полное имя : Аладдин.1992.BDRip.1080p.Rus.Eng.mkv
Формат : Matroska
Версия формата : Version 2
Размер файла : 5,77 Гбайт
Продолжительность : 1 ч. 30 м.
Общий поток : 9111 Кбит/сек
Название фильма : Аладдин.1992
Дата кодирования : UTC 2013-12-21 15:31:18
Программа кодирования : mkvmerge v5.8.0 ('No Sleep / Pillow') built on Sep 2 2012 15:37:04
Библиотека кодирования : libebml v1.2.3 + libmatroska v1.3.0

Видео
Идентификатор : 1
Формат : AVC
Формат/Информация : Advanced Video Codec
Профиль формата : High@L4.1
Параметр CABAC формата : Да
Параметр ReFrames формата : 4 кадра
Идентификатор кодека : V_MPEG4/ISO/AVC
Продолжительность : 1 ч. 30 м.
Битрейт : 7828 Кбит/сек
Ширина : 1920 пикселей
Высота : 1040 пикселей
Соотношение сторон : 1,85:1
Режим частоты кадров : Постоянный
Частота кадров : 23,976 кадра/сек
Цветовое пространство : YUV
Субдискретизация насыщенности : 4:2:0
Битовая глубина : 8 бит
Тип развёртки : Прогрессивная
Бит/(Пиксели*Кадры) : 0.164
Размер потока : 4,84 Гбайт (84%)
Заголовок : Rip by Boriy
Библиотека кодирования : x264 core 140 r2377 1ca7bb9
Настройки программы : cabac=1 / ref=4 / deblock=1:0:0 / analyse=0x3:0x113 / me=umh / subme=11 / psy=1 / psy_rd=1.00:0.00 / mixed_ref=1 / me_range=32 / chroma_me=1 / trellis=2 / 8x8dct=1 / cqm=0 / deadzone=21,11 / fast_pskip=0 / chroma_qp_offset=-2 / threads=12 / lookahead_threads=1 / sliced_threads=0 / nr=0 / decimate=0 / interlaced=0 / bluray_compat=0 / constrained_intra=0 / bframes=6 / b_pyramid=2 / b_adapt=2 / b_bias=0 / direct=3 / weightb=1 / open_gop=0 / weightp=2 / keyint=240 / keyint_min=23 / scenecut=40 / intra_refresh=0 / rc=2pass / mbtree=0 / bitrate=7828 / ratetol=1.0 / qcomp=0.60 / qpmin=0 / qpmax=69 / qpstep=4 / cplxblur=20.0 / qblur=0.5 / ip_ratio=1.40 / pb_ratio=1.30 / aq=1:0.80
Язык : English
Default : Да
Forced : Нет

Аудио #1
Идентификатор : 2
Формат : AC-3
Формат/Информация : Audio Coding 3
Расширение режима : CM (complete main)
Параметр Endianness формата : Big
Идентификатор кодека : A_AC3
Продолжительность : 1 ч. 30 м.
Вид битрейта : Постоянный
Битрейт : 640 Кбит/сек
Каналы : 6 каналов
Расположение каналов : Front: L C R, Side: L R, LFE
Частота : 48,0 КГц
Битовая глубина : 16 бит
Метод сжатия : С потерями
Размер потока : 415 Мбайт (7%)
Заголовок : Дубляж
Язык : Russian
Default : Да
Forced : Нет

Аудио #2
Идентификатор : 3
Формат : AC-3
Формат/Информация : Audio Coding 3
Расширение режима : CM (complete main)
Параметр Endianness формата : Big
Идентификатор кодека : A_AC3
Продолжительность : 1 ч. 30 м.
Вид битрейта : Постоянный
Битрейт : 640 Кбит/сек
Каналы : 6 каналов
Расположение каналов : Front: L C R, Side: L R, LFE
Частота : 48,0 КГц
Битовая глубина : 16 бит
Метод сжатия : С потерями
Размер потока : 415 Мбайт (7%)
Заголовок : Оригинал
Язык : English
Default : Нет
Forced : Нет

Текст #1
Идентификатор : 4
Формат : UTF-8
Идентификатор кодека : S_TEXT/UTF8
Идентификатор кодека/Информация : UTF-8 Plain Text
Заголовок : Forced
Язык : Russian
Default : Да
Forced : Да

Текст #2
Идентификатор : 5
Формат : UTF-8
Идентификатор кодека : S_TEXT/UTF8
Идентификатор кодека/Информация : UTF-8 Plain Text
Заголовок : Songs
Язык : Russian
Default : Нет
Forced : Нет

Текст #3
Идентификатор : 6
Формат : UTF-8
Идентификатор кодека : S_TEXT/UTF8
Идентификатор кодека/Информация : UTF-8 Plain Text
Заголовок : Full
Язык : Russian
Default : Нет
Forced : Нет

Текст #4
Идентификатор : 7
Формат : UTF-8
Идентификатор кодека : S_TEXT/UTF8
Идентификатор кодека/Информация : UTF-8 Plain Text
Заголовок : Songs
Язык : English
Default : Нет
Forced : Нет

Текст #5
Идентификатор : 8
Формат : UTF-8
Идентификатор кодека : S_TEXT/UTF8
Идентификатор кодека/Информация : UTF-8 Plain Text
Заголовок : Full
Язык : English
Default : Нет
Forced : Нет

Меню
00:00:00.000 : :Chapter 1
00:03:06.060 : :Chapter 2
00:06:47.323 : :Chapter 3
00:12:37.423 : :Chapter 4
00:16:34.618 : :Chapter 5
00:19:39.052 : :Chapter 6
00:23:50.470 : :Chapter 7
00:27:39.324 : :Chapter 8
00:31:21.629 : :Chapter 9
00:34:55.676 : :Chapter 10
00:37:20.363 : :Chapter 11
00:41:13.387 : :Chapter 12
00:43:32.860 : :Chapter 13
00:47:17.042 : :Chapter 14
00:48:39.958 : :Chapter 15
00:55:20.025 : :Chapter 16
00:57:37.745 : :Chapter 17
01:03:04.906 : :Chapter 18
01:07:24.915 : :Chapter 19
01:10:07.411 : :Chapter 20
01:10:41.654 : :Chapter 21
01:15:31.610 : :Chapter 22
01:18:57.983 : :Chapter 23
01:21:41.438 : :Chapter 24
01:25:43.555 : :Chapter 25
x264 [info]: frame I:1094 Avg QP:13.26 size:264486
x264 [info]: frame P:37639 Avg QP:16.33 size: 79444
x264 [info]: frame B:91693 Avg QP:18.06 size: 22291



   Похожие торренты   Торрент   Размер 
В этой теме нет новых непрочитанных сообщений. Аладдин / Aladdin (1992) BDRip 1080p

77 | 44

4.38 ГБ

В этой теме нет новых непрочитанных сообщений. Аладдин / Aladdin (1992) BDRip

82 | 12

4.02 ГБ

В этой теме нет новых непрочитанных сообщений. Аладдин / Aladdin (1992) BDRip от HQCLUB

1422 | 54

1.46 ГБ

В этой теме нет новых непрочитанных сообщений. Аладдин / Aladdin (1992) BDRip RAMpage CHG

8 | 4

701.51 МБ

В этой теме нет новых непрочитанных сообщений. Аладдин / Aladdin (1992) BDRip от Generalfilm | КПК

151 | 11

311.47 МБ

В этой теме нет новых непрочитанных сообщений. Аладдин / Aladdin (1992) BDRip-AVC от MediaClub | D, P2, A

19 | 4

3.29 ГБ

В этой теме нет новых непрочитанных сообщений. Аладдин / Aladdin (1992) BDRip 720p от HQ-ViDEO

52 | 6

4.56 ГБ




Вы не можете начинать темы
Вы не можете отвечать на сообщения
Вы не можете редактировать свои сообщения
Вы не можете удалять свои сообщения
Вы не можете добавлять вложения

Перейти:  
Для Мосгорсуда, Роскомнадзора и рекламодателей: mosgorsud-torrent[собачка]yandex.ru
 Вход
ppkBB3cker v.2 © 2008-2014 @ PPK
[ Time : 0.039s | 16 Queries | GZIP : Off ]

Торрент трекер RUTOR.IN, Не можете зайти на rutor.org? Какой новый адрес рутор? Какое зеркало рутор? Не работает rutor.org и зеркала? Тогда наш торрент специально для вас. Rutor.in неофициальное зеркало rutor. В случае если у Вас заблокирован rutor или вдруг Вы не можете на него зайти, то Вы без труда сможете скачать бесплатно и без рекламы последние новинки кино, игр, сериалов и прочего у нас, на Rutor.in. Не нужно использовать прокси, чтобы зайти на рутор, достаточно воспользоваться нашим ресурсом. Все новые фильмы, игры, сериалы, книги и музыка за 2013 и 2014 годы через торрент бесплатно. Скачивайте фильмы в хорошем качестве, игры для пк, xbox, playstation без регистрации. У нас вы найдете новые Зарубежные сериалы и Русские сериалы 2013, 2014, 2015 годов. Оставайтесь с нами, качайте любимые фильмы, игры, сериалы, книги и музыку.