img image001 image001 image001 image001 image001 image001 image001 image001 image001 image001 image001 image001 image001 image001 image001

Planets Sun Sun Sun
Статистика раздачи
Автор: PriZraK | Размер: 747.76 МБ | Добавлен: 15 фев 2014
Раздают: 174    Качают: 18
Скачать торрент
Скачать торрент
Описание торрента

СообщениеДобавлено: 15 фев 2014 



Информация о фильме
Название: Шрек: Хэллоуин
Оригинальное название: Scared Shrekless
Год выхода: 2010
Жанр: мультфильм
Режиссер: Гарри Трусдейл, Раман Хуи
В ролях: Майк Майерс, Эдди Мёрфи, Кэмерон Диаз, Антонио Бандерас, Джули Эндрюс, Джон Хэмм, Джон Клиз, Крэйг Робинсон, Уолт Дорн, Джейн Линч

О фильме: Шрек с друзьями решили устроить конкурс на самую страшную Хэллоуинскую историю. Но прежде чем выяснится кто же победил, им придется всю ночь пробыть в замке усопшего лорда Фаркуада.



Выпущено: США, DreamWorks Animation / NBC
Продолжительность: 00:21:03
Озвучивание:
Перевод #1: Профессиональный (многоголосый закадровый) VO-production, VSTeam & Filiza
Перевод #2: Профессиональный Дубляж, Пифагор
Перевод #3: Любительский (одноголосый закадровый) mydimka
Перевод #4: Оригинал (Отдельно В раздаче)

Файл:
Формат: AVI (XviD)
Качество: BDRip
Видео: 720x400 (1.80:1), 23.976 fps, XviD MPEG-4 ~3863 kbps avg, 0.56 bit/pixel
Аудио:
Audio #1: 48 kHz, AC3 Dolby Digital, 3/2 (L,C,R,l,r) + LFE ch, ~384 kbps
Audio #2: 48 kHz, AC3 Dolby Digital, 2/0 (L,R) ch, ~192 kbps
Audio #3: 48 kHz, AC3 Dolby Digital, 3/2 (L,C,R,l,r) + LFE ch, ~384 kbps
Общее
Полное имя : D:Рипы выкладка [Deadmauvlad]Scared.Shrekless.2010.Dub(Пифагор).MVO(VO-production, VSTeam & Filiza).VO(mydimka).BDRip.DeadmauvladENG.ac3
Формат : AC-3
Формат/Информация : Audio Coding 3
Размер файла : 19,2 Мбайт
Продолжительность : 21 м.
Режим общего битрейта : Постоянный
Общий поток : 128 Кбит/сек

Аудио
Формат : AC-3
Формат/Информация : Audio Coding 3
Расширение режима : CM (complete main)
Параметр Endianness формата : Big
Продолжительность : 21 м.
Вид битрейта : Постоянный
Битрейт : 128 Кбит/сек
Каналы : 6 каналов
Расположение каналов : Front: L C R, Side: L R, LFE
Частота : 48,0 КГц
Битовая глубина : 16 бит
Метод сжатия : С потерями
Размер потока : 19,2 Мбайт (100%)

Общее
Полное имя : D:Рипы выкладка [Deadmauvlad]Scared.Shrekless.2010.Dub(Пифагор).MVO(VO-production, VSTeam & Filiza).VO(mydimka).BDRip.DeadmauvladScared.Shrekless.2010.DUB.VO.MVO.Deadmauvlad.avi
Формат : AVI
Формат/Информация : Audio Video Interleave
Размер файла : 728 Мбайт
Продолжительность : 21 м.
Общий поток : 4844 Кбит/сек
Название фильма : Scared.Shrekless.2010.DUB.VO.MVO.Deadmauvlad
Режиссёр : Deadmauvlad
Жанр : Для Детей 0+
Программа кодирования : VirtualDubMod 1.5.10.3 | www.virtualdub-fr.org || (build 2550/release)
Формат оригинала/Имя : Мультфильм
Правообладатель : http://goldenshara.com/
Примечание : BDRip

Видео
Идентификатор : 0
Формат : MPEG-4 Visual
Профиль формата : Advanced Simple@L5
Параметр BVOP формата : 1
Параметр QPel формата : Нет
Параметр GMC формата : Без точки перехода
Параметр матрицы формата : Default (MPEG)
Идентификатор кодека : XVID
Идентификатор кодека/Подсказка : XviD
Продолжительность : 21 м.
Битрейт : 3865 Кбит/сек
Ширина : 720 пикселей
Высота : 400 пикселей
Соотношение сторон : 16:9
Частота кадров : 23,976 кадра/сек
Цветовое пространство : YUV
Субдискретизация насыщенности : 4:2:0
Битовая глубина : 8 бит
Тип развёртки : Прогрессивная
Метод сжатия : С потерями
Бит/(Пиксели*Кадры) : 0.560
Размер потока : 581 Мбайт (80%)
Библиотека кодирования : XviD 73

Аудио #1
Идентификатор : 1
Формат : AC-3
Формат/Информация : Audio Coding 3
Расширение режима : CM (complete main)
Параметр Endianness формата : Big
Идентификатор кодека : 2000
Продолжительность : 21 м.
Вид битрейта : Постоянный
Битрейт : 384 Кбит/сек
Каналы : 6 каналов
Расположение каналов : Front: L C R, Side: L R, LFE
Частота : 48,0 КГц
Битовая глубина : 16 бит
Метод сжатия : С потерями
Размер потока : 57,7 Мбайт (8%)
Выравнивание : Разделение по промежуткам
Продолжительность промежутка : 42 мс. (1,00 видеокадр)
Время предзагрузки промежутка : 500 мс.

Аудио #2
Идентификатор : 2
Формат : AC-3
Формат/Информация : Audio Coding 3
Расширение режима : CM (complete main)
Параметр Endianness формата : Big
Идентификатор кодека : 2000
Продолжительность : 21 м.
Вид битрейта : Постоянный
Битрейт : 192 Кбит/сек
Каналы : 2 канала
Расположение каналов : Front: L R
Частота : 48,0 КГц
Битовая глубина : 16 бит
Метод сжатия : С потерями
Размер потока : 28,9 Мбайт (4%)
Выравнивание : Разделение по промежуткам
Продолжительность промежутка : 42 мс. (1,00 видеокадр)
Время предзагрузки промежутка : 500 мс.

Аудио #3
Идентификатор : 3
Формат : AC-3
Формат/Информация : Audio Coding 3
Расширение режима : CM (complete main)
Параметр Endianness формата : Big
Идентификатор кодека : 2000
Продолжительность : 21 м.
Вид битрейта : Постоянный
Битрейт : 384 Кбит/сек
Каналы : 6 каналов
Расположение каналов : Front: L C R, Side: L R, LFE
Частота : 48,0 КГц
Битовая глубина : 16 бит
Метод сжатия : С потерями
Размер потока : 57,7 Мбайт (8%)
Выравнивание : Разделение по промежуткам
Продолжительность промежутка : 42 мс. (1,00 видеокадр)
Время предзагрузки промежутка : 500 мс.

Общее
Полное имя : D:Рипы выкладка [Deadmauvlad]Scared.Shrekless.2010.Dub(Пифагор).MVO(VO-production, VSTeam & Filiza).VO(mydimka).BDRip.DeadmauvladСубтитрыScared.Shrekless.2010.DUB.VO.MVO.Deadmauvlad.English (Original Text).srt
Формат : SubRip
Размер файла : 27,4 Кбайт

Текст
Формат : SubRip
Метод сжатия : Без потерь

Общее
Полное имя : D:Рипы выкладка [Deadmauvlad]Scared.Shrekless.2010.Dub(Пифагор).MVO(VO-production, VSTeam & Filiza).VO(mydimka).BDRip.DeadmauvladСубтитрыScared.Shrekless.2010.DUB.VO.MVO.Deadmauvlad.French (Original Text).srt
Размер файла : 27,2 Кбайт

Общее
Полное имя : D:Рипы выкладка [Deadmauvlad]Scared.Shrekless.2010.Dub(Пифагор).MVO(VO-production, VSTeam & Filiza).VO(mydimka).BDRip.DeadmauvladСубтитрыScared.Shrekless.2010.DUB.VO.MVO.Deadmauvlad.RUS.srt
Формат : SubRip
Размер файла : 2,07 Кбайт

Текст
Формат : SubRip
Метод сжатия : Без потерь

Общее
Полное имя : D:Рипы выкладка [Deadmauvlad]Scared.Shrekless.2010.Dub(Пифагор).MVO(VO-production, VSTeam & Filiza).VO(mydimka).BDRip.DeadmauvladСубтитрыScared.Shrekless.2010.DUB.VO.MVO.Deadmauvlad.Spanish (Original Text).srt
Размер файла : 26,7 Кбайт

Размер: 728.43 Mb
Субтитры: Русские (Полные, переводы песен), Испанские , Английские , Французкие
Доп. информация:
Релиз-группа


Автор Рипа






ПОЖАЛУЙСТА НЕ УХОДИТЕ С РАЗДАЧИ!



   Похожие торренты   Торрент   Размер 
В этой теме нет новых непрочитанных сообщений. Шрек: Хэллоуин / Scared Shrekless (2010) BDRip 720 от SuperMin

76 | 30

746.03 МБ

В этой теме нет новых непрочитанных сообщений. Шрек: Хэллоуин / Scared Shrekless (2010) HDTVRip

30 | 2

300.49 МБ

В этой теме нет новых непрочитанных сообщений. Шрек: Хэллоуин / Scared Shrekless (2010) HDTVRip-AVC от KINOREAKTOR

18 | 3

462.56 МБ

В этой теме нет новых непрочитанных сообщений. Шрек: Хэллоуин / Scared Shrekless (2010) HDTVRip от KINOREAKTOR

14 | 4

361.71 МБ

В этой теме нет новых непрочитанных сообщений. Шрек: Хэллоуин / Scared Shrekless (2010) HDTVRip от HQ-ViDEO

74 | 10

545.63 МБ

В этой теме нет новых непрочитанных сообщений. Шрек: Хэллоуин / Scared Shrekless (2010) HDTV 1080p

25 | 7

1.72 ГБ

В этой теме нет новых непрочитанных сообщений. Шрек навсегда / Shrek Forever After (2010) BDRip 720p | лицензия

105 | 10

2.89 ГБ




Вы не можете начинать темы
Вы не можете отвечать на сообщения
Вы не можете редактировать свои сообщения
Вы не можете удалять свои сообщения
Вы не можете добавлять вложения

Перейти:  
Для Мосгорсуда, Роскомнадзора и рекламодателей: mosgorsud-torrent[собачка]yandex.ru
 Вход
ppkBB3cker v.2 © 2008-2014 @ PPK
[ Time : 0.396s | 14 Queries | GZIP : Off ]

Торрент трекер RUTOR.IN, Не можете зайти на rutor.org? Какой новый адрес рутор? Какое зеркало рутор? Не работает rutor.org и зеркала? Тогда наш торрент специально для вас. Rutor.in неофициальное зеркало rutor. В случае если у Вас заблокирован rutor или вдруг Вы не можете на него зайти, то Вы без труда сможете скачать бесплатно и без рекламы последние новинки кино, игр, сериалов и прочего у нас, на Rutor.in. Не нужно использовать прокси, чтобы зайти на рутор, достаточно воспользоваться нашим ресурсом. Все новые фильмы, игры, сериалы, книги и музыка за 2013 и 2014 годы через торрент бесплатно. Скачивайте фильмы в хорошем качестве, игры для пк, xbox, playstation без регистрации. У нас вы найдете новые Зарубежные сериалы и Русские сериалы 2013, 2014, 2015 годов. Оставайтесь с нами, качайте любимые фильмы, игры, сериалы, книги и музыку.