img image001 image001 image001 image001 image001 image001 image001 image001 image001 image001 image001 image001 image001 image001 image001

Planets Sun Sun Sun
Статистика раздачи
Автор: PriZraK | Размер: 919.57 МБ | Добавлен: 15 фев 2014
Раздают: 34    Качают: 5
Скачать торрент
Скачать торрент
Описание торрента

СообщениеДобавлено: 15 фев 2014 


Страна: Россия / Студия "Да"
Жанр: мультфильм, короткометражка, детский
Год выпуска: 2012
Продолжительность: 9 x ~ 00:06:30

Перевод: не требуется
Оригинальная аудиодорожка: русский
Cубтитры: нет

Режиссеры: Михаил Сафронов, Илья Максимов, Галина Лютикова, Константин Бирюков, Джангир Сулейманов

Роли озвучивали: Ксения Бржезовская, Елена Шульман, Владимир Маслаков, Михаил Черняк, Андрей Левин, Михаил Хрусталев, Олег Куликович, Саша Бессонова, Антон Виноградов, Анна Геллер, Слава Зарецкий, Игорь Яковель...

Описание: В небе летит Легкая страна. Она совсем небольшая и очень уютная. Тут есть и горы, и луга, и небольшой городок с узкими кривыми улочками. Жители Легкой страны решили здесь поселиться, потому что легко относятся к жизни, любят путешествия и не боятся оторваться от земли.






Качество: DVDRip (DVD5 R5)
Формат: AVI

Видео: 720x400 (16:9), 25.000 fps, XViD ~ 2000 kbps avg, 0.278 bit/pixel
Аудио: 48 kHz, AC3 2 ch, 192 kbps, русский

Раздача от:



01 «Красный шарик»
02 «Привычка»
03 «Ничего»
04 «Мысли о стирке»
05 «Всё хорошо»
06 «Буря»
07 «Сокровище»
08 «Хосе уже не тот»
09 «Инструменты»



General
Complete name : Letayushie.zveri.2012.O.DVDRip_[New-Team]_by_avproh�1.avi
Format : AVI
Format/Info : Audio Video Interleave
File size : 102 MiB
Duration : 6mn 30s
Overall bit rate : 2 190 Kbps
Writing application : VirtualDubMod 1.5.10.3 | www.virtualdub-fr.org || (build 2550/release)
Writing library : VirtualDubMod build 2550/release

Video
ID : 0
Format : MPEG-4 Visual
Format profile : Advanced Simple@L5
Format settings, BVOP : 1
Format settings, QPel : No
Format settings, GMC : No warppoints
Format settings, Matrix : Custom
Codec ID : XVID
Codec ID/Hint : XviD
Duration : 6mn 30s
Bit rate : 1 988 Kbps
Width : 720 pixels
Height : 400 pixels
Display aspect ratio : 16:9
Frame rate : 25.000 fps
Color space : YUV
Chroma subsampling : 4:2:0
Bit depth : 8 bits
Scan type : Progressive
Compression mode : Lossy
Bits/(Pixel*Frame) : 0.276
Stream size : 92.4 MiB (91%)
Writing library : XviD 73

Audio
ID : 1
Format : AC-3
Format/Info : Audio Coding 3
Mode extension : CM (complete main)
Codec ID : 2000
Duration : 6mn 30s
Bit rate mode : Constant
Bit rate : 192 Kbps
Channel(s) : 2 channels
Channel positions : Front: L R
Sampling rate : 48.0 KHz
Bit depth : 16 bits
Compression mode : Lossy
Stream size : 8.93 MiB (9%)
Alignment : Split accross interleaves
Interleave, duration : 40 ms (1.00 video frame)
Interleave, preload duration : 500 ms





   Похожие торренты   Торрент   Размер 
В этой теме нет новых непрочитанных сообщений. Летающие звери [S01x01-09 из 09] (2012) DVDRip-AVC от New-Team | лицензия

60 | 2

883.38 МБ

В этой теме нет новых непрочитанных сообщений. Летающие звери [S01] (2012) DVD5 R5 от New-Team | лицензия

18 | 2

2.85 ГБ

В этой теме нет новых непрочитанных сообщений. Малыши и Летающие звери [01-30 из 30] (2014-2015) WEB-DLRip от Generalfilm

218 | 10

742.7 МБ

В этой теме нет новых непрочитанных сообщений. Звери дикого Юга / Beasts of the Southern Wild (2012) HDRip | Лицензия

28 | 3

1.37 ГБ

В этой теме нет новых непрочитанных сообщений. Звери дикого Юга / Beasts of the Southern Wild (2012) BDRip от Youtracker | P | Лицензия

7 | 4

744.95 МБ

В этой теме нет новых непрочитанных сообщений. Звери дикого Юга / Beasts of the Southern Wild (2012) BDRip от HQCLUB | Лицензия

282 | 18

1.46 ГБ

В этой теме нет новых непрочитанных сообщений. Звери дикого Юга / Beasts of the Southern Wild (2012) BDRip от Youtracker | P | Лицензия

22 | 2

2.12 ГБ




Вы не можете начинать темы
Вы не можете отвечать на сообщения
Вы не можете редактировать свои сообщения
Вы не можете удалять свои сообщения
Вы не можете добавлять вложения

Перейти:  
Для Мосгорсуда, Роскомнадзора и рекламодателей: mosgorsud-torrent[собачка]yandex.ru
 Вход
ppkBB3cker v.2 © 2008-2014 @ PPK
[ Time : 0.132s | 15 Queries | GZIP : Off ]

Торрент трекер RUTOR.IN, Не можете зайти на rutor.org? Какой новый адрес рутор? Какое зеркало рутор? Не работает rutor.org и зеркала? Тогда наш торрент специально для вас. Rutor.in неофициальное зеркало rutor. В случае если у Вас заблокирован rutor или вдруг Вы не можете на него зайти, то Вы без труда сможете скачать бесплатно и без рекламы последние новинки кино, игр, сериалов и прочего у нас, на Rutor.in. Не нужно использовать прокси, чтобы зайти на рутор, достаточно воспользоваться нашим ресурсом. Все новые фильмы, игры, сериалы, книги и музыка за 2013 и 2014 годы через торрент бесплатно. Скачивайте фильмы в хорошем качестве, игры для пк, xbox, playstation без регистрации. У нас вы найдете новые Зарубежные сериалы и Русские сериалы 2013, 2014, 2015 годов. Оставайтесь с нами, качайте любимые фильмы, игры, сериалы, книги и музыку.