img image001 image001 image001 image001 image001 image001 image001 image001 image001 image001 image001 image001 image001 image001 image001

Planets Sun Sun Sun
Статистика раздачи
Автор: PriZraK | Размер: 883.38 МБ | Добавлен: 15 фев 2014
Раздают: 60    Качают: 2
Скачать торрент
Скачать торрент
Описание торрента

СообщениеДобавлено: 15 фев 2014 



Страна: Россия / Студия "Да"
Жанр: мультфильм, короткометражка, детский
Год выпуска: 2012
Продолжительность: 9 x ~ 00:06:30

Перевод: не требуется
Оригинальная аудиодорожка: русский
Cубтитры: нет

Режиссеры: Михаил Сафронов, Илья Максимов, Галина Лютикова, Константин Бирюков, Джангир Сулейманов

Роли озвучивали: Ксения Бржезовская, Елена Шульман, Владимир Маслаков, Михаил Черняк, Андрей Левин, Михаил Хрусталев, Олег Куликович, Саша Бессонова, Антон Виноградов, Анна Геллер, Слава Зарецкий, Игорь Яковель...

Описание: В небе летит Легкая страна. Она совсем небольшая и очень уютная. Тут есть и горы, и луга, и небольшой городок с узкими кривыми улочками. Жители Легкой страны решили здесь поселиться, потому что легко относятся к жизни, любят путешествия и не боятся оторваться от земли.






Качество: DVDRip-AVC (DVD5 R5)
Формат: MKV

Видео: 720x576@1024x576 (16:9), 25.000 fps, H264 ~ 2000 kbps avg, 0.278 bit/pixel
Аудио: 48 kHz, AC3 2 ch, 192 kbps, русский

Раздача от:



01 «Красный шарик»
02 «Привычка»
03 «Ничего»
04 «Мысли о стирке»
05 «Всё хорошо»
06 «Буря»
07 «Сокровище»
08 «Хосе уже не тот»
09 «Инструменты»



Общее
Полное имя : Letayushiye.zveri.2012.O.DVDRip-AVC_[New-Team]_by_avproh\01.mkv
Формат : Matroska
Версия формата : Version 2
Размер файла : 102 Мбайт
Продолжительность : 6 м. 30 с.
Общий поток : 2200 Кбит/сек
Дата кодирования : UTC 2013-12-23 15:59:33
Программа кодирования : mkvmerge v6.1.0 ('Old Devil') built on Mar 4 2013 09:10:42
Библиотека кодирования : libebml v1.3.0 + libmatroska v1.4.0

Видео
Идентификатор : 1
Формат : AVC
Формат/Информация : Advanced Video Codec
Профиль формата : High@L4.1
Параметр CABAC формата : Да
Параметр ReFrames формата : 6 кадров
Идентификатор кодека : V_MPEG4/ISO/AVC
Продолжительность : 6 м. 30 с.
Битрейт : 2006 Кбит/сек
Ширина : 720 пикселей
Высота : 576 пикселей
Соотношение сторон : 16:9
Режим частоты кадров : Постоянный
Частота кадров : 25,000 кадров/сек
Стандарт вещания : PAL
Цветовое пространство : YUV
Субдискретизация насыщенности : 4:2:0
Битовая глубина : 8 бит
Тип развёртки : Прогрессивная
Бит/(Пиксели*Кадры) : 0.193
Размер потока : 91,3 Мбайт (89%)
Библиотека кодирования : x264 core 138 r2356 a1d3d17
Настройки программы : cabac=1 / ref=6 / deblock=1:-2:-1 / analyse=0x3:0x113 / me=umh / subme=10 / psy=1 / psy_rd=1.00:0.05 / mixed_ref=1 / me_range=32 / chroma_me=1 / trellis=2 / 8x8dct=1 / cqm=0 / deadzone=21,11 / fast_pskip=0 / chroma_qp_offset=-3 / threads=9 / lookahead_threads=1 / sliced_threads=0 / nr=0 / decimate=0 / interlaced=0 / bluray_compat=0 / constrained_intra=0 / bframes=8 / b_pyramid=2 / b_adapt=2 / b_bias=0 / direct=3 / weightb=1 / open_gop=0 / weightp=2 / keyint=250 / keyint_min=25 / scenecut=40 / intra_refresh=0 / rc=2pass / mbtree=0 / bitrate=2006 / ratetol=1.0 / qcomp=0.60 / qpmin=0 / qpmax=69 / qpstep=4 / cplxblur=20.0 / qblur=0.5 / ip_ratio=1.40 / pb_ratio=1.30 / aq=1:1.00
Default : Да
Forced : Нет

Аудио
Идентификатор : 2
Формат : AC-3
Формат/Информация : Audio Coding 3
Расширение режима : CM (complete main)
Параметр Endianness формата : Big
Идентификатор кодека : A_AC3
Продолжительность : 6 м. 30 с.
Вид битрейта : Постоянный
Битрейт : 192 Кбит/сек
Каналы : 2 канала
Расположение каналов : Front: L R
Частота : 48,0 КГц
Битовая глубина : 16 бит
Метод сжатия : С потерями
Размер потока : 8,93 Мбайт (9%)
Default : Да
Forced : Нет





   Похожие торренты   Торрент   Размер 
В этой теме нет новых непрочитанных сообщений. Летающие звери [S01] (2012) DVDRip от New-Team | лицензия

35 | 4

919.57 МБ

В этой теме нет новых непрочитанных сообщений. Летающие звери [S01] (2012) DVD5 R5 от New-Team | лицензия

17 | 2

2.85 ГБ

В этой теме нет новых непрочитанных сообщений. Летающие звери [01х01-42] (2012-2015) WEB-DLRip 720p от ExKinoRay | D

12 | 2

3.91 ГБ

В этой теме нет новых непрочитанных сообщений. Малыши и Летающие звери [01-30 из 30] (2014-2015) WEB-DLRip от Generalfilm

275 | 12

742.7 МБ

В этой теме нет новых непрочитанных сообщений. Малыши и Летающие звери [01-52] (2014-2015) WEB-DLRip 720p от ExKinoRay

41 | 0

986.97 МБ

В этой теме нет новых непрочитанных сообщений. Приключения Чака и его друзей / The Adventures of Chuck & Friends [S01x01-52 из 52] (2010-2011) DVDRip от New-Team | лицензия

167 | 30

7.67 ГБ

В этой теме нет новых непрочитанных сообщений. Приключения Чака и его друзей / The Adventures of Chuck & Friends [S01x01-52 из 52] (2010-2011) DVDRip-AVC от New-Team | лицензия

494 | 135

7.68 ГБ




Вы не можете начинать темы
Вы не можете отвечать на сообщения
Вы не можете редактировать свои сообщения
Вы не можете удалять свои сообщения
Вы не можете добавлять вложения

Перейти:  
Для Мосгорсуда, Роскомнадзора и рекламодателей: mosgorsud-torrent[собачка]yandex.ru
 Вход
ppkBB3cker v.2 © 2008-2014 @ PPK
[ Time : 0.036s | 17 Queries | GZIP : Off ]

Торрент трекер RUTOR.IN, Не можете зайти на rutor.org? Какой новый адрес рутор? Какое зеркало рутор? Не работает rutor.org и зеркала? Тогда наш торрент специально для вас. Rutor.in неофициальное зеркало rutor. В случае если у Вас заблокирован rutor или вдруг Вы не можете на него зайти, то Вы без труда сможете скачать бесплатно и без рекламы последние новинки кино, игр, сериалов и прочего у нас, на Rutor.in. Не нужно использовать прокси, чтобы зайти на рутор, достаточно воспользоваться нашим ресурсом. Все новые фильмы, игры, сериалы, книги и музыка за 2013 и 2014 годы через торрент бесплатно. Скачивайте фильмы в хорошем качестве, игры для пк, xbox, playstation без регистрации. У нас вы найдете новые Зарубежные сериалы и Русские сериалы 2013, 2014, 2015 годов. Оставайтесь с нами, качайте любимые фильмы, игры, сериалы, книги и музыку.
cron