img image001 image001 image001 image001 image001 image001 image001 image001 image001 image001 image001 image001 image001 image001 image001 image001

Planets Sun Sun Sun
Статистика раздачи
Автор: PriZraK | Размер: 10 ГБ | Добавлен: 15 фев 2014
Раздают: 102    Качают: 20
Скачать торрент
Скачать торрент
Описание торрента

СообщениеДобавлено: 15 фев 2014 




Информация о фильме
Название: Ранго
Оригинальное название: Rango
Год выхода: 2011
Жанр: Мультфильм, комедия, приключения, семейный, вестерн
Режиссер: Гор Вербински
В ролях: Джонни Депп, Айла Фишер, Эбигейл Бреслин, Нед Битти, Альфред Молина, Билл Найи, Стивен Рут, Гарри Дин Стэнтон, Тимоти Олифант, Рэй Уинстон

О фильме:
Ранго — хамелеон, который живет в террариуме и считает себя героем, которому, к сожалению, никак не удается проявить свое бесстрашие. Но когда он внезапно оказывается в городке Грязь, у него появляется такая возможность. Ранго провозглашает себя борцом за справедливость и начинает вести себя как шериф на Диком Западе. Он еще не знает, что быть «хорошим парнем» в этих краях не самая завидная участь…



Страна: США
Студия: Blind Wink, GK Films, Nickelodeon Movies
Продолжительность: 01:51:50
Перевод: Дублированный + Оригинал

Файл
Кодек: x264
Качество: BDRip 1080p (источник: Blu-ray Remux / 1080p)
Видео: 1920х800 (2.40:1), 11526 Kbps, 23.976 fps, 0.313 bit/pixel
Аудио #1: 48.0 kHz, AC3 Dolby Digital, 3/2 (L,C,R,l,r) + LFE ch, 640 kbps [Дубляж]
Аудио #2: 48.0 kHz, AC3 Dolby Digital, 3/2 (L,C,R,l,r) + LFE ch, 640 kbps [Оригинал, Английский]
Аудио #3: 48.0 kHz, AC3 Dolby Digital, 3/2 (L,C,R,l,r) + LFE ch, 640 kbps [Дубляж, Украинский] Отдельно на disk.yandex.ru
Аудио #4: 48.0 kHz, AC3 Dolby Digital, 3/2 (L,C,R,l,r) + LFE ch, 640 kbps [Авторский, Ю. Живов] Отдельно на disk.yandex.ru
Субтитры: Русские [форсированные, полные], английские

Семпл



x264 [info]: frame I:1319 Avg QP:16.32 size:262443
x264 [info]: frame P:40635 Avg QP:19.67 size: 95580
x264 [info]: frame B:118926 Avg QP:22.15 size: 45700
General
Unique ID : 214237088571515311982365380787414564145 (0xA12C8FF9F58347CEA48F5A75D290FD31)
Complete name : E:Rango.2011.x264.BDRip.1080p.mkv
Format : Matroska
Format version : Version 2
File size : 10.0 GiB
Duration : 1h 51mn
Overall bit rate : 12.8 Mbps
Encoded date : UTC 2013-12-24 17:14:30
Writing application : mkvmerge v5.8.0 ('No Sleep / Pillow') built on Sep 2 2012 15:37:04
Writing library : libebml v1.2.3 + libmatroska v1.3.0

Video
ID : 1
Format : AVC
Format/Info : Advanced Video Codec
Format profile : High@L4.1
Format settings, CABAC : Yes
Format settings, ReFrames : 5 frames
Codec ID : V_MPEG4/ISO/AVC
Duration : 1h 51mn
Bit rate : 11.5 Mbps
Width : 1 920 pixels
Height : 800 pixels
Display aspect ratio : 2.40:1
Frame rate mode : Constant
Frame rate : 23.976 fps
Color space : YUV
Chroma subsampling : 4:2:0
Bit depth : 8 bits
Scan type : Progressive
Bits/(Pixel*Frame) : 0.313
Stream size : 8.80 GiB (88%)
Writing library : x264 core 140 r2377 1ca7bb9
Encoding settings : cabac=1 / ref=5 / deblock=1:-3:-3 / analyse=0x3:0x133 / me=tesa / subme=11 / psy=1 / psy_rd=1.00:0.00 / mixed_ref=1 / me_range=32 / chroma_me=1 / trellis=2 / 8x8dct=1 / cqm=0 / deadzone=21,11 / fast_pskip=0 / chroma_qp_offset=-2 / threads=12 / lookahead_threads=2 / sliced_threads=0 / nr=0 / decimate=0 / interlaced=0 / bluray_compat=0 / constrained_intra=0 / bframes=8 / b_pyramid=2 / b_adapt=2 / b_bias=0 / direct=3 / weightb=0 / open_gop=0 / weightp=2 / keyint=240 / keyint_min=23 / scenecut=40 / intra_refresh=0 / rc_lookahead=60 / rc=2pass / mbtree=1 / bitrate=11526 / ratetol=1.0 / qcomp=0.60 / qpmin=0 / qpmax=69 / qpstep=4 / cplxblur=20.0 / qblur=0.5 / ip_ratio=1.40 / aq=1:1.00
Language : English
Default : Yes
Forced : No

Audio #1
ID : 2
Format : AC-3
Format/Info : Audio Coding 3
Mode extension : CM (complete main)
Format settings, Endianness : Big
Codec ID : A_AC3
Duration : 1h 51mn
Bit rate mode : Constant
Bit rate : 640 Kbps
Channel count : 6 channels
Channel positions : Front: L C R, Side: L R, LFE
Sampling rate : 48.0 KHz
Bit depth : 16 bits
Compression mode : Lossy
Stream size : 512 MiB (5%)
Title : Дубляж
Language : Russian
Default : Yes
Forced : No

Audio #2
ID : 3
Format : AC-3
Format/Info : Audio Coding 3
Mode extension : CM (complete main)
Format settings, Endianness : Big
Codec ID : A_AC3
Duration : 1h 51mn
Bit rate mode : Constant
Bit rate : 640 Kbps
Channel count : 6 channels
Channel positions : Front: L C R, Side: L R, LFE
Sampling rate : 48.0 KHz
Bit depth : 16 bits
Compression mode : Lossy
Stream size : 512 MiB (5%)
Title : Оригинал, Английский
Language : English
Default : No
Forced : No

Text #1
ID : 4
Format : UTF-8
Codec ID : S_TEXT/UTF8
Codec ID/Info : UTF-8 Plain Text
Title : Форсированные
Language : Russian
Default : Yes
Forced : No

Text #2
ID : 5
Format : UTF-8
Codec ID : S_TEXT/UTF8
Codec ID/Info : UTF-8 Plain Text
Title : Полные
Language : Russian
Default : No
Forced : No

Text #3
ID : 6
Format : UTF-8
Codec ID : S_TEXT/UTF8
Codec ID/Info : UTF-8 Plain Text
Language : English
Default : No
Forced : No

Menu
00:00:00.000 : :00:00:00.000
00:05:25.867 : :00:05:25.867
00:10:34.217 : :00:10:34.217
00:14:40.087 : :00:14:40.087
00:19:24.455 : :00:19:24.455
00:25:27.693 : :00:25:27.693
00:29:51.289 : :00:29:51.289
00:35:04.436 : :00:35:04.436
00:38:03.615 : :00:38:03.615
00:44:31.544 : :00:44:31.544
00:49:27.881 : :00:49:27.881
00:54:39.109 : :00:54:39.109
01:03:26.177 : :01:03:26.177
01:11:47.136 : :01:11:47.136
01:17:02.701 : :01:17:02.701
01:23:13.739 : :01:23:13.739
01:29:04.297 : :01:29:04.297
01:33:15.214 : :01:33:15.214
01:39:33.551 : :01:39:33.551
01:45:26.862 : :01:45:26.862



   Похожие торренты   Торрент   Размер 
В этой теме нет новых непрочитанных сообщений. Ранго / Rango (2011) BDRip 720p от HELLYWOOD | Расширенная версия | Лицензия

157 | 17

5.86 ГБ

В этой теме нет новых непрочитанных сообщений. Ранго / Rango (2011) BDRip 720 от SuperMin | Театральная версия | D | Лицензия

90 | 6

4.38 ГБ

В этой теме нет новых непрочитанных сообщений. Зеленый Фонарь / Green Lantern (2011) BDRemux 1080p | Расширенная версия

100 | 25

24.47 ГБ

В этой теме нет новых непрочитанных сообщений. Джиа / Gia (1998) BDRip 1080p by msltel | P2, A | Расширенная версия

47 | 10

19.17 ГБ

В этой теме нет новых непрочитанных сообщений. Топаз / Topaz (1969) BDRip 1080p | Расширенная версия | A

3 | 0

16.59 ГБ

В этой теме нет новых непрочитанных сообщений. Солдаты Фортуны / Men Of War (1994) BDRip 1080p | P, P2, A | Расширенная версия

6 | 3

8.6 ГБ

В этой теме нет новых непрочитанных сообщений. Области тьмы / Limitless (2011) BDRip | D, A | Расширенная версия

665 | 127

2.44 ГБ




Вы не можете начинать темы
Вы не можете отвечать на сообщения
Вы не можете редактировать свои сообщения
Вы не можете удалять свои сообщения
Вы не можете добавлять вложения

Перейти:  
 Вход
ppkBB3cker v.2 © 2008-2014 @ PPK
[ Time : 0.041s | 15 Queries | GZIP : Off ]

cron