img image001 image001 image001 image001 image001 image001 image001 image001 image001 image001 image001 image001 image001 image001 image001

Planets Sun Sun Sun
Статистика раздачи
Автор: PriZraK | Размер: 1.63 ГБ | Добавлен: 15 фев 2014
Раздают: 13    Качают: 4
Скачать торрент
Скачать торрент
Описание торрента

СообщениеДобавлено: 15 фев 2014 




Информация о фильме
Название: Скуби-Ду и меч самурая
Оригинальное название: Scooby-Doo! and the Samurai Sword
Год выхода: 2009
Жанр: Мультфильм, детский, полнометражный
Режиссер: Кристофер Беркли
В ролях: Фрэнк Уэлкер, Кэйси Касэм, Минди Кон, Грэй ДеЛисл, Келли Ху, Кевин Майкл Ричардсон, Саб Симоно, Джордж Такей, Гедде Ватанабэ, Кион Янг, Брайан Кокс

О фильме:
У любителей побездельничать Скуби-Ду и Шэгги - новое задание. Они должны раскрыть тайну, связанную с боевыми искусствами! В поисках сокровища Скуби-Ду и Ко. отправляются на другой континент, где им приходится разгадывать древние загадки. Наши детективы должны опередить Черного самурая и его Воинов-призраков в погоне за Мечом Судьбы, старинным оружием, которое, согласно легенде, обладает волшебной силой. По пути необычный Мастер Меча рассказывает Скуби-Ду и Шэгги о самурайском кодексе "Бусидо". Они тут же применяют новые знания на практике в битве с армией Роботов-ниндзя. Наконец утомленные герои узнают, что "Бусидо", который превозносит честь, верность и отвагу, хранит в себе разгадку тайны.



Страна: США, Warner Bros. Animation, Warner Brothers, Warner Home Video
Продолжительность: 01:14:51
Перевод: Дублированный, профессиональный многоголосый
Субтитры: Русские, украинские, английские
Дата релиза: 24.12.2013

Файл
Кодек: H.264
Качество: BDRip (AVC)
Видео: MPEG-4 AVC, 2099 Кбит/с, 1024x576
Звук:
Аудио №1: Русский (AC3, 2 ch, 192 Кбит/с) - Дублированный
Аудио №2: Русский (AC3, 6 ch, 384 Кбит/с) - Профессиональный многоголосый
Аудио №3: Английский (AC3, 6 ch, 448 Кбит/с)

Общее
Уникальный идентификатор : 237691384984733236855241617504235096810 (0xB2D1B211F4E929DAB9A655F40EEF0AEA)
Полное имя : E:Skubi-Du.i.mech.samuraja.2009.x264.BDRip.(AVC).ExKinoRay.mkv
Формат : Matroska
Размер файла : 1,63 Гбайт
Продолжительность : 1 ч. 14 м.
Общий поток : 3124 Кбит/сек
Название фильма : Skubi-Du.i.mech.samuraja.2009.x264.BDRip.(AVC).ExKinoRay
Дата кодирования : UTC 2013-12-24 20:40:46
Программа кодирования : mkvmerge v4.0.0 ('The Stars were mine') сборка от Jun 6 2010 16:18:42
Библиотека кодирования : libebml v1.0.0 + libmatroska v1.0.0

Видео
Идентификатор : 1
Формат : AVC
Формат/Информация : Advanced Video Codec
Профиль формата : High@L4.1
Параметр CABAC формата : Да
Параметр ReFrames формата : 8 кадров
Идентификатор кодека : V_MPEG4/ISO/AVC
Продолжительность : 1 ч. 14 м.
Битрейт : 2099 Кбит/сек
Ширина : 1024 пикс.
Высота : 576 пикс.
Соотношение сторон : 16:9
Частота кадров : 23,976 кадр/сек
Цветовое пространство : YUV
Подвыборка цветности : 4:2:0
Битовая глубина : 8 бит
Тип развёртки : Прогрессивная
Бит/(Пиксели*Кадры) : 0.148
Размер потока : 1,07 Гбайт (65%)
Заголовок : Rip by Enigma-Vladislav71
Библиотека кодирования : x264 core 129 r2245 bc13772
Настройки программы : cabac=1 / ref=8 / deblock=1:-2:-2 / analyse=0x3:0x133 / me=umh / subme=10 / psy=1 / psy_rd=1.00:0.00 / mixed_ref=1 / me_range=32 / chroma_me=1 / trellis=2 / 8x8dct=1 / cqm=0 / deadzone=21,11 / fast_pskip=0 / chroma_qp_offset=-2 / threads=3 / lookahead_threads=1 / sliced_threads=0 / nr=0 / decimate=0 / interlaced=0 / bluray_compat=0 / constrained_intra=0 / bframes=8 / b_pyramid=2 / b_adapt=2 / b_bias=0 / direct=3 / weightb=1 / open_gop=0 / weightp=2 / keyint=240 / keyint_min=23 / scenecut=40 / intra_refresh=0 / rc=2pass / mbtree=0 / bitrate=2099 / ratetol=1.0 / qcomp=0.60 / qpmin=10 / qpmax=51 / qpstep=4 / cplxblur=20.0 / qblur=0.5 / ip_ratio=1.40 / pb_ratio=1.30 / aq=2:1.00
Язык : English

Аудио #1
Идентификатор : 2
Формат : AC-3
Формат/Информация : Audio Coding 3
Расширение режима : CM (complete main)
Идентификатор кодека : A_AC3
Продолжительность : 1 ч. 14 м.
Вид битрейта : Постоянный
Битрейт : 192 Кбит/сек
Каналы : 2 канала
Расположение каналов : Front: L R
Частота : 48,0 КГц
Битовая глубина : 16 бит
Метод сжатия : С потерями
Размер потока : 103 Мбайт (6%)
Заголовок : Дублированный
Язык : Russian

Аудио #2
Идентификатор : 3
Формат : AC-3
Формат/Информация : Audio Coding 3
Расширение режима : CM (complete main)
Идентификатор кодека : A_AC3
Продолжительность : 1 ч. 14 м.
Вид битрейта : Постоянный
Битрейт : 384 Кбит/сек
Каналы : 6 каналов
Расположение каналов : Front: L C R, Side: L R, LFE
Частота : 48,0 КГц
Битовая глубина : 16 бит
Метод сжатия : С потерями
Размер потока : 206 Мбайт (12%)
Заголовок : Профессиональный многоголосый
Язык : Russian

Аудио #3
Идентификатор : 4
Формат : AC-3
Формат/Информация : Audio Coding 3
Расширение режима : CM (complete main)
Идентификатор кодека : A_AC3
Продолжительность : 1 ч. 14 м.
Вид битрейта : Постоянный
Битрейт : 448 Кбит/сек
Каналы : 6 каналов
Расположение каналов : Front: L C R, Side: L R, LFE
Частота : 48,0 КГц
Битовая глубина : 16 бит
Метод сжатия : С потерями
Размер потока : 240 Мбайт (14%)
Язык : English

Текст #1
Идентификатор : 5
Формат : UTF-8
Идентификатор кодека : S_TEXT/UTF8
Идентификатор кодека/Информация : UTF-8 Plain Text
Язык : Russian

Текст #2
Идентификатор : 6
Формат : UTF-8
Идентификатор кодека : S_TEXT/UTF8
Идентификатор кодека/Информация : UTF-8 Plain Text
Заголовок : украинский

Текст #3
Идентификатор : 7
Формат : UTF-8
Идентификатор кодека : S_TEXT/UTF8
Идентификатор кодека/Информация : UTF-8 Plain Text
Язык : English



Релиз от:

Авторы релиза:



   Похожие торренты   Торрент   Размер 
В этой теме нет новых непрочитанных сообщений. Скуби-Ду и меч самурая / Scooby-Doo! and the Samurai Sword (2009) BDRip от ExKinoRay

39 | 4

1.07 ГБ

В этой теме нет новых непрочитанных сообщений. Скуби-Ду и меч самурая / Scooby-Doo! and the Samurai Sword (2009) BDRip от HQCLUB

48 | 2

1.45 ГБ

В этой теме нет новых непрочитанных сообщений. Скуби-Ду и меч самурая / Scooby-Doo and the Samurai Sword (2009) BDRip 720p от Leonardo and Scarabey

71 | 11

1.43 ГБ

В этой теме нет новых непрочитанных сообщений. Скуби-Ду и меч самурая / Scooby-Doo and the Samurai Sword (2008) DVDRip | D

17 | 2

744.12 МБ

В этой теме нет новых непрочитанных сообщений. Пес-призрак: Путь самурая / Ghost Dog: The Way of the Samurai (1999) BDRip-AVC от ExKinoRay

13 | 4

3.03 ГБ

В этой теме нет новых непрочитанных сообщений. Три самурая вне закона / Sanbiki no samurai / Three Outlaw Samurai (1964) BDRip-AVC от MediaClub | A

184 | 22

1.98 ГБ

В этой теме нет новых непрочитанных сообщений. Скуби-Ду 2. Монстры на свободе / Scooby Doo 2. Monsters Unleashed (2004) BDRip-AVC от ExKinoRay

39 | 6

2.87 ГБ




Вы не можете начинать темы
Вы не можете отвечать на сообщения
Вы не можете редактировать свои сообщения
Вы не можете удалять свои сообщения
Вы не можете добавлять вложения

Перейти:  
Для Мосгорсуда, Роскомнадзора и рекламодателей: mosgorsud-torrent[собачка]yandex.ru
 Вход
ppkBB3cker v.2 © 2008-2014 @ PPK
[ Time : 0.038s | 15 Queries | GZIP : Off ]

Торрент трекер RUTOR.IN, Не можете зайти на rutor.org? Какой новый адрес рутор? Какое зеркало рутор? Не работает rutor.org и зеркала? Тогда наш торрент специально для вас. Rutor.in неофициальное зеркало rutor. В случае если у Вас заблокирован rutor или вдруг Вы не можете на него зайти, то Вы без труда сможете скачать бесплатно и без рекламы последние новинки кино, игр, сериалов и прочего у нас, на Rutor.in. Не нужно использовать прокси, чтобы зайти на рутор, достаточно воспользоваться нашим ресурсом. Все новые фильмы, игры, сериалы, книги и музыка за 2013 и 2014 годы через торрент бесплатно. Скачивайте фильмы в хорошем качестве, игры для пк, xbox, playstation без регистрации. У нас вы найдете новые Зарубежные сериалы и Русские сериалы 2013, 2014, 2015 годов. Оставайтесь с нами, качайте любимые фильмы, игры, сериалы, книги и музыку.
cron